<?xml version="1.0" standalone="no"?>
<!DOCTYPE svg PUBLIC "-//W3C//DTD SVG 1.1//EN" "http://www.w3.org/Graphics/SVG/1.1/DTD/svg11.dtd">
<svg xmlns="http://www.w3.org/2000/svg">
<defs >
<font id="Satisfy" horiz-adv-x="386" ><font-face
    font-family="Satisfy"
    units-per-em="1024"
    panose-1="2 0 0 0 0 0 0 0 0 0"
    ascent="957"
    descent="-501"
    alphabetic="0" />
<glyph unicode=" " glyph-name="space" horiz-adv-x="287" />
<glyph unicode="!" glyph-name="exclam" horiz-adv-x="255" d="M215 751Q225 753 236 753Q245 753 255 751T275 743L123 180Q120 169 105 158T74 141T45 134T34 143Q38 159 52 221Q58 248 67 287T88 383T118 513T157 684Q158 691 159 698Q160 703 160 709T157
718Q165 727 175 733T194 744Q205 748 215 751ZM61 76Q87 80 103 72T117 40Q116 27 106 16T83 -5T55 -19T29 -24Q8 -24 -7 -15T-20 14Q-19 27 -12 37T7 56T33 69T61 76Z" />
<glyph unicode="&quot;" glyph-name="quotedbl" horiz-adv-x="255" d="M152 749Q175 754 184 753T193 746Q190 738 183 714T165 652T141 566T114 464Q112 461 107 457Q102 454 94 452T71 449Q57 448 51 450T43 457Q40 461 41 466Q42 469 43 473Q44 476 44 480T46
487L98 702Q103 722 113 731T152 749ZM292 749Q315 754 324 753T332 746Q330 738 323 714T305 652T281 566T254 464Q252 461 247 457Q242 454 234 452T211 449Q197 448 191 450T183 457Q180 461 181 466Q182 469 183 473Q184 476 184 480T186 487L239 702Q244 722
253 731T292 749Z" />
<glyph unicode="#" glyph-name="numbersign" horiz-adv-x="428" d="M437 499Q455 498 458 491T453 468Q445 452 437 446T414 440Q400 441 384 441T348 441Q339 416 331 390T314 337Q337 336 356 336T395 333Q412 331 415 325T411 302Q403 287 395 280T372 274Q356
275 338 275T296 275Q295 273 295 271T294 267Q280 218 273 191T263 151Q259 136 259 133Q258 132 240 125T203 117Q186 117 183 121T183 136Q184 139 188 151T198 182T213 225T229 274H182Q172 274 163 274T143 273Q143 271 143 270T142 267Q128 218 121 191T111
151T108 136T108 133Q106 132 89 125T51 117Q34 117 31 121T32 136Q32 138 36 150T46 180T59 221T76 268Q59 267 42 265Q28 263 11 261T-20 256Q-22 262 -21 269T-17 283Q-14 290 -11 297Q-7 305 1 315T18 328Q25 330 46 332T98 336Q110 369 119 396T133 435Q113
433 94 431Q77 429 59 427T23 422Q20 435 25 449Q27 456 31 463Q36 471 44 481T61 494Q68 496 93 498T154 503L183 602Q188 618 197 626T230 640Q250 644 258 643T265 639Q261 629 248 593T217 505H251Q266 505 279 505T305 504L335 602Q340 618 349 626T382 640Q402
644 410 643T417 639Q413 629 400 592T369 503Q387 502 404 502T437 499ZM251 338Q264 376 274 404T287 441Q271 441 256 441T225 440Q217 440 210 440T196 439Q187 414 179 389T163 338Q174 338 186 338T209 339Q220 339 230 339T251 338Z" />
<glyph unicode="$" glyph-name="dollar" horiz-adv-x="300" d="M254 668Q281 663 297 646T323 607T334 566T336 536Q335 525 332 512T322 486T305 465T281 452Q270 449 260 448Q252 447 243 447T228 451Q241 464 249 481T262 514Q267 532 269 552Q272 585 256
605T223 626Q207 626 191 618T161 597T138 564T126 522Q124 491 140 454T174 376Q187 347 200 322T222 273T234 227T234 180Q232 168 225 151T203 117T167 87T115 70L90 -2Q81 -7 69 -9Q63 -10 57 -10Q51 -10 47 -9Q43 -8 40 -6T35 0Q40 15 43 28T49 52Q52 63 55
73Q26 79 8 93T-20 125T-33 158T-36 184Q-34 207 -24 219T4 243L18 250Q32 257 47 261Q37 245 34 225Q31 214 31 203Q26 159 45 134T91 106Q100 106 112 111T136 126T156 151T166 186Q168 205 164 222T153 255T138 283T124 308Q119 320 107 343T82 396T62 460T56
526Q59 554 71 577T104 619T149 650T202 667Q206 679 212 700T223 735Q224 739 232 742T251 743Q273 738 271 727Q268 717 263 700T254 668Z" />
<glyph unicode="%" glyph-name="percent" horiz-adv-x="588" d="M41 535Q41 562 51 598T83 666T134 721T205 743Q215 743 232 736T265 714T293 674T305 616Q305 574 293 533T260 459T207 406T138 386Q103 386 84 400T55 437T43 486T41 535ZM241 600Q242 615 241
631T235 660T224 681T208 690Q187 690 168 673T134 631T112 575T103 520Q103 506 104 492T110 467T123 450T143 443Q169 443 187 463T216 510T234 563T241 600ZM444 341Q455 341 472 334T505 312T533 273T545 215Q545 173 533 132T500 57T447 4T378 -16Q343 -16
324 -1T295 36T283 84T281 132Q281 160 291 196T322 264T373 319T444 341ZM480 199Q481 214 480 230T475 259T463 280T447 289Q426 289 407 272T374 229T352 174T344 119Q344 104 345 91T351 66T364 49T384 42Q410 42 428 62T457 109T473 162T480 199ZM558 749Q583
754 591 753T598 746Q592 738 571 710T520 641T452 548T378 444T307 340T246 247Q215 200 187 155Q163 117 138 75T96 3Q79 -5 66 -8T43 -14Q32 -16 23 -16Q3 -16 1 -11T7 7Q15 19 50 70Q65 92 87 124T142 204T216 313T315 457L484 702Q498 722 512 731T558 749Z"
/>
<glyph unicode="&amp;" glyph-name="ampersand" horiz-adv-x="472" d="M408 184Q417 192 425 193T437 190T441 177T428 156Q405 133 378 107T317 56Q325 41 335 29Q343 18 354 8T379 -8Q377 -12 370 -16T355 -25Q346 -30 335 -36Q308 -49 290 -50T260 -45T242
-27T231 -2Q230 -1 230 3Q230 5 229 6Q197 -7 162 -15T89 -23Q41 -23 12 -4T-32 43T-50 103T-48 163Q-39 219 9 283T139 426Q144 431 150 436T161 446Q161 473 162 497T166 545Q167 554 168 562T171 580Q181 631 203 665T251 721T303 752T347 761Q359 761 373 757T399
743T417 716T419 673Q415 651 407 630T381 584T334 525T259 446Q255 442 252 439T245 432Q250 340 266 255T298 109Q300 101 301 98Q322 111 340 124T371 150T394 171T408 184ZM131 45Q153 45 173 48T213 57Q204 87 194 131T175 230Q171 259 169 288T164 345Q49
216 37 146Q35 132 37 115T49 82T78 56T131 45ZM252 627Q245 578 243 524Q291 571 325 608T364 674Q366 688 361 701T340 715Q324 715 309 707T283 687T263 659T252 627Z" />
<glyph unicode="&apos;" glyph-name="quotesingle" horiz-adv-x="116" d="M152 749Q175 754 184 753T193 746Q190 738 183 714T165 652T141 566T114 464Q112 461 107 457Q102 454 94 452T71 449Q57 448 51 450T43 457Q40 461 41 466Q42 469 43 473Q44 476 44 480T46
487L98 702Q103 722 113 731T152 749Z" />
<glyph unicode="(" glyph-name="parenleft" horiz-adv-x="240" d="M313 779Q293 761 276 737T242 686T213 629T189 573Q163 509 145 438Q120 334 107 241Q101 201 98 160T94 80T98 9T115 -48L100 -119Q76 -104 55 -60T25 56T25 229T74 455Q124 618 190 720T332
849L313 779V779Z" />
<glyph unicode=")" glyph-name="parenright" horiz-adv-x="209" d="M-95 -50Q-75 -32 -58 -8T-24 43T5 100T29 156Q55 220 74 291Q99 395 112 488Q118 528 121 569T125 649T120 720T104 777L119 849Q142 834 163 790T193 673T193 500T144 274Q95 111 29 9T-113
-119L-95 -50V-50Z" />
<glyph unicode="*" glyph-name="asterisk" horiz-adv-x="335" d="M380 640Q384 639 387 628T390 602T391 576T389 562Q386 560 371 559Q358 558 332 558T258 560Q253 559 250 557T253 547Q288 515 306 497T333 468Q343 457 344 453Q343 448 331 440T305 422T278
407T261 401Q258 403 252 417Q247 429 239 454T218 527Q213 538 208 529Q185 487 172 463T150 428Q141 415 137 412Q133 410 121 420T97 443T76 468T66 485Q68 488 80 498Q91 506 113 520T177 558Q184 565 175 568Q130 579 105 586T68 598Q54 603 51 607Q50 611
56 624T72 651T89 676T101 688Q104 687 115 678Q124 670 142 654T190 606Q197 600 199 601T203 610Q201 655 201 680T203 718Q204 733 206 737Q208 740 223 739T257 736T290 730T305 723Q304 719 298 705Q293 693 281 670T248 607Q245 601 247 598T257 598Q299
615 323 623T360 636Q375 640 380 640Z" />
<glyph unicode="+" glyph-name="plus" horiz-adv-x="359" d="M351 372Q346 355 340 348T319 341Q299 343 269 343T207 341L206 340Q200 310 195 284Q190 262 186 243T181 217Q178 211 172 208T158 202Q150 199 142 198Q134 197 126 197Q110 197 100 204L132 339Q109
338 85 335Q65 333 41 329T-4 319Q-6 326 -6 334T-3 349Q-1 357 1 365Q4 373 11 384T25 398Q32 402 68 405T148 411L175 523Q183 531 192 535T209 541Q219 543 228 543Q237 543 244 541Q249 539 253 537T255 530Q249 511 244 491T233 452Q228 431 222 411Q257 410
284 409T336 404Q350 403 353 396T351 372Z" />
<glyph unicode="," glyph-name="comma" horiz-adv-x="205" d="M52 75Q78 72 86 52T90 7Q88 -6 82 -22T65 -57T38 -91T-1 -121Q-10 -126 -16 -125T-24 -120T-25 -110T-17 -99Q-7 -89 5 -70T23 -27Q18 -28 14 -28T4 -28Q-11 -26 -22 -15T-31 18Q-27 44 -2 61T52 75Z" />
<glyph unicode="-" glyph-name="hyphen" horiz-adv-x="362" d="M310 289Q282 290 239 290T154 288Q126 287 97 284Q72 282 42 278T-15 266Q-16 274 -15 281T-12 296Q-10 304 -8 311Q-4 321 3 332T17 346Q22 348 37 350T74 353T122 356T175 357Q228 358 263 357T330
352Q344 350 346 343T343 318Q337 301 330 295T310 289Z" />
<glyph unicode="." glyph-name="period" horiz-adv-x="219" d="M51 76Q77 80 92 72T106 40Q105 27 96 16T73 -5T44 -19T18 -24Q-2 -24 -17 -15T-31 14Q-30 27 -23 37T-4 56T22 69T51 76Z" />
<glyph unicode="/" glyph-name="slash" horiz-adv-x="269" d="M357 749Q382 754 390 753T397 746Q392 738 375 710T333 641T278 548T217 444T159 340T111 247Q86 200 64 155Q45 117 25 75T-7 3Q-23 -5 -35 -8T-58 -14Q-69 -16 -79 -16Q-99 -16 -101 -11T-97 7Q-90
19 -62 70Q-50 92 -32 124T12 204T73 313T153 457L290 702Q300 722 313 731T357 749Z" />
<glyph unicode="0" glyph-name="zero" horiz-adv-x="501" d="M328 754Q366 754 393 726T437 651T457 544T455 419Q440 290 404 205T326 69T240 -3T165 -24Q141 -24 118 -9T75 39T44 123T31 248Q30 294 41 349T71 461T118 570T179 664T250 729T328 754ZM378 446Q378
451 380 471T382 519T382 577T373 632T353 674T317 691Q295 691 262 653T197 548T143 389T121 187Q121 176 123 152T132 102T151 58T182 39Q211 39 242 76T301 173T349 304T378 446Z" />
<glyph unicode="1" glyph-name="one" horiz-adv-x="279" d="M151 249Q144 222 136 191T122 126T117 60T125 -3Q116 -8 104 -10T81 -14Q69 -16 56 -15Q39 -15 30 -8T18 10T16 37T24 70Q34 104 65 211T133 504Q139 536 143 560T152 602Q138 611 124 623T102 647Q103
650 117 666T151 700T189 732T220 746Q225 746 232 741T247 730T259 716T263 703L151 249Z" />
<glyph unicode="2" glyph-name="two" horiz-adv-x="459" d="M327 -30Q325 -15 302 -7T250 5Q217 9 177 10Q148 10 123 7Q101 5 81 0T52 -15Q39 -25 18 -20T-10 14Q-12 25 -16 35Q-19 43 -22 52T-31 66Q-16 96 1 120T40 167T88 213T148 265Q179 291 213 327T277
408T327 506T351 622Q353 673 334 693T285 713Q271 713 253 702T219 670T190 622T176 565Q175 557 177 550Q179 544 181 539T190 530Q174 517 158 513Q150 511 143 511Q135 511 124 512T104 519T88 536T82 566Q83 585 98 617T145 679T224 732T334 754Q376 754 398
736T431 693T442 643T442 601Q440 559 423 515T378 428T316 344T246 267T178 201T119 150Q92 127 78 104T56 61Q80 73 122 85T218 97Q250 97 277 94Q300 92 321 87T350 71Q352 60 352 51T351 34Q350 25 348 18Q346 10 343 2Q338 -12 327 -30Z" />
<glyph unicode="3" glyph-name="three" horiz-adv-x="474" d="M393 234Q392 195 375 150T328 65T255 0T160 -26Q107 -26 75 -11T25 27T1 73T-5 113Q-5 129 7 138T37 151T72 157T102 159Q99 150 97 130T101 91T124 56T176 41Q203 41 227 60T270 110T300 176T312
245Q313 279 298 301T251 323Q238 323 224 320Q212 318 197 313T165 298L143 355Q177 370 216 394T288 452T344 529T369 627Q371 659 353 679T298 699Q280 699 259 691T218 667T187 629T173 580Q173 565 177 554Q180 544 187 536T209 528Q195 518 183 513T161 505Q150
502 141 502Q129 502 118 506T97 519T83 543T78 580Q79 602 91 632T131 689T201 735T307 754Q335 754 362 746T410 719T443 674T454 608Q453 578 440 544T404 477T349 414T275 361Q293 361 314 356T353 336T382 298T393 234Z" />
<glyph unicode="4" glyph-name="four" horiz-adv-x="463" d="M215 109Q223 145 236 195T263 300Q213 298 160 292T45 269Q37 274 31 282T20 297Q15 305 10 314Q1 334 0 351T16 383Q25 390 40 406T77 445T123 497T178 559Q235 625 263 661T295 713Q319 723 338
728T371 738L398 744Q427 749 434 740T433 702Q429 688 420 653T400 571T377 473T355 372Q370 370 382 366T402 354T411 335T407 307Q405 301 401 293Q395 279 386 257Q381 265 374 271T359 283Q350 288 341 292Q326 202 317 127T310 7Q298 -4 286 -9T263 -17Q251
-20 240 -20Q216 -20 208 -6T201 32Q202 50 206 70T215 109ZM146 355Q193 357 224 361T281 369Q290 404 298 437T315 499Q331 558 341 600T357 669Q345 654 329 634T293 592T255 546T217 501Q183 460 148 420T89 350Q100 352 114 352T146 355Z" />
<glyph unicode="5" glyph-name="five" horiz-adv-x="455" d="M156 714Q157 715 157 714H156ZM261 660Q233 660 211 655Q204 635 194 604T173 537T151 461T132 385Q142 397 157 410T191 435T232 455T278 463Q311 463 333 451T368 419T385 371T387 315Q382 254 359
193T300 84T218 5T122 -26Q96 -26 74 -15T34 15T8 55T0 100Q3 141 47 174Q55 181 64 186Q71 191 79 195T94 202Q88 154 98 128T123 90Q140 76 164 74Q196 74 223 92T269 140T301 206T316 281Q321 331 303 359T257 387Q227 387 202 368T152 319Q143 308 132 305T111
301T91 304T77 311Q74 313 69 317T60 331T56 355T63 394Q71 419 83 454T107 528T130 601T147 660Q156 694 157 703T157 714Q162 715 181 720T228 730T292 739T364 743Q403 743 427 740T462 727T475 702T469 660Q466 651 461 641Q456 633 449 623T430 601Q419 623
392 635T335 653Q301 659 261 660Z" />
<glyph unicode="6" glyph-name="six" horiz-adv-x="489" d="M180 -25Q156 -25 131 -12T85 32T51 113T36 236Q35 282 47 338T80 451T132 563T197 659T272 726T354 752Q401 752 418 732T441 679Q443 665 443 649T441 616T429 587T407 565Q395 559 383 556Q372 553
358 553T329 558Q346 586 355 611T365 656T361 687T341 699Q323 699 298 676T245 612T191 512T148 383Q185 437 226 459T297 482Q314 482 336 476T377 452T409 400T423 313Q423 259 404 200T352 90T274 8T180 -25ZM136 321Q131 289 129 255T126 184Q126 173 129
148T139 98T160 54T194 35Q222 35 249 67T297 147T331 247T344 341Q343 382 332 405T295 429Q274 429 258 415T228 382T206 341T191 305Q180 279 174 278T154 290Q147 295 143 303T136 321Z" />
<glyph unicode="7" glyph-name="seven" horiz-adv-x="416" d="M428 608Q418 595 394 559T339 471T274 354T210 221Q188 169 174 125Q168 106 164 87T157 51T156 21T165 1Q137 -8 115 -11Q103 -13 92 -13Q65 -15 56 4T54 53Q61 88 81 140T130 251T194 373T269 492Q304
541 337 588T392 665Q373 670 340 671T258 667Q226 663 195 654Q169 646 140 634T90 602Q87 610 86 618T84 633Q83 641 83 649Q83 659 85 671T92 696T107 717T133 730Q150 733 185 736T258 742T333 745T389 744Q429 741 443 730T457 691Q457 677 457 668T453 649T444
631T428 608Z" />
<glyph unicode="8" glyph-name="eight" horiz-adv-x="455" d="M359 178Q358 145 343 109T300 43T235 -6T155 -25Q119 -25 89 -18T36 7T1 54T-10 129Q-9 172 8 210T51 283T109 345T171 397Q143 441 133 475T123 547Q124 568 134 603T167 671T229 728T325 753Q356
753 380 743T419 716T442 678T450 634Q448 599 432 566T392 502T338 446T282 401Q313 355 336 299T359 178ZM211 588Q210 556 217 525T248 456Q274 478 299 502T345 551T378 599T391 644Q392 676 375 695T328 715Q297 715 275 703T239 672T218 631T211 588ZM266
161Q267 194 263 219T251 266T231 308T204 349Q180 329 156 303T112 246T80 185T66 124Q65 95 70 76T85 45T108 29T134 24Q150 24 172 30T215 53T250 95T266 161Z" />
<glyph unicode="9" glyph-name="nine" horiz-adv-x="474" d="M319 753Q359 753 386 725T427 649T443 541T434 416Q412 287 372 202T287 67T198 -3T121 -24Q106 -24 88 -18T55 2T29 34T20 77Q22 94 28 112Q33 127 43 143T72 172Q77 131 88 110T113 78Q128 67 146
65Q174 65 206 92T269 166T326 271T367 395Q356 371 339 342T297 287T243 244T174 226Q133 226 111 249T77 306T63 377T63 444Q64 463 71 493T92 558T126 627T175 690T239 735T319 753ZM369 503Q373 542 373 578T366 643T348 688T314 705Q288 705 259 682T205 618T162
527T141 419Q139 381 144 356T159 315T181 294T204 287Q228 287 249 309T286 362T314 425T331 478Q335 495 342 499T369 503Z" />
<glyph unicode=":" glyph-name="colon" horiz-adv-x="232" d="M101 286Q126 288 144 278T161 249Q159 229 137 209T83 187Q57 185 39 195T23 223Q25 244 43 264T101 286ZM51 76Q77 80 92 72T106 40Q105 27 96 16T73 -5T44 -19T18 -24Q-2 -24 -17 -15T-31 14Q-30
27 -23 37T-4 56T22 69T51 76Z" />
<glyph unicode=";" glyph-name="semicolon" horiz-adv-x="218" d="M88 286Q113 288 130 278T146 249Q144 229 123 209T69 187Q43 185 25 195T9 223Q11 244 29 264T88 286ZM52 75Q78 72 86 52T90 7Q88 -6 82 -22T65 -57T38 -91T-1 -121Q-10 -126 -16 -125T-24 -120T-25
-110T-17 -99Q-7 -89 5 -70T23 -27Q18 -28 14 -28T4 -28Q-11 -26 -22 -15T-31 18Q-27 44 -2 61T52 75Z" />
<glyph unicode="&lt;" glyph-name="less" horiz-adv-x="278" d="M84 321Q90 310 96 300T106 282Q123 252 140 223Q154 198 170 172T198 126Q193 122 185 121T169 118Q159 117 148 117Q123 117 115 120T102 132Q101 134 90 152T64 196T32 253T-1 314Q-3 319 -6
325T-10 335Q-10 336 -8 339Q-5 343 6 353L181 501Q188 507 195 511T211 518T232 524T264 529Q280 531 289 531T302 529T307 525T307 522Q302 517 280 498T226 450T157 388T84 321Z" />
<glyph unicode="=" glyph-name="equal" horiz-adv-x="383" d="M341 382Q313 384 275 383T195 381Q169 380 143 378Q120 376 92 373T36 361Q35 369 36 376T39 390Q41 397 43 404Q47 414 54 425T69 439Q73 441 87 443T121 447T165 450T216 452Q242 452 262 452T298
451T329 449T360 445Q375 443 377 437T374 412Q368 395 361 388T341 382ZM300 259Q272 261 234 260T154 258Q128 258 102 255Q79 253 51 249T-5 237Q-6 244 -5 251T-2 265Q0 272 2 278Q6 287 13 298T28 312Q32 314 46 317T80 322T124 327T175 329Q201 329 221 329T257
328T288 326T319 323Q334 321 336 314T333 289Q327 272 320 265T300 259Z" />
<glyph unicode="&gt;" glyph-name="greater" horiz-adv-x="257" d="M139 516Q140 514 151 496T177 452T210 395T243 334Q245 329 248 323T252 313Q252 312 250 309Q248 307 245 303T236 294L60 146Q53 141 47 137T31 129T9 124T-23 119Q-39 117 -48 117T-61 119T-67
123T-66 126Q-60 131 -38 150T16 198T85 260T158 328Q152 338 146 348T135 367Q118 397 101 425Q87 449 72 475T44 522Q48 525 56 526T72 529Q82 530 93 530Q118 530 126 527T139 516Z" />
<glyph unicode="?" glyph-name="question" horiz-adv-x="423" d="M295 758Q320 758 353 751T414 726T461 678T473 601Q463 527 427 474T344 386T250 332T172 308L147 205Q143 188 135 172T114 143T81 124T35 119L86 321Q90 337 102 348T150 367Q194 375 238 394T319
455Q329 466 339 482T360 518T377 559T387 601Q390 620 386 638T370 669T337 690T282 698Q256 698 233 690T193 669T165 638T152 603Q151 592 152 582Q153 573 156 564T167 548Q121 536 99 544T68 569Q57 587 59 615Q64 653 92 680T156 724T231 750T295 758ZM71
73Q97 73 115 62T131 31Q129 20 122 10T104 -10T77 -24T46 -30Q19 -30 1 -19T-15 12Q-12 34 8 53T71 73Z" />
<glyph unicode="@" glyph-name="at" horiz-adv-x="664" d="M646 341Q642 271 616 212T553 110T474 42T398 17Q364 17 347 30T325 63T322 103T330 138Q332 142 334 148T339 162Q317 144 288 129T223 113Q170 113 143 146T120 236Q122 267 134 301T167 368T214 430T269
482T327 517T383 530Q403 530 415 523T434 505T443 480T445 455Q447 461 447 461Q458 494 467 504T493 493Q499 485 503 476Q507 468 509 460T509 447Q482 385 463 337T429 255Q413 215 402 186Q387 150 385 128T386 94T401 80T422 80Q444 87 470 111T520 170T560
250T580 343Q584 393 575 441T542 528T479 590T382 614Q325 614 267 587T160 510T79 394T43 249Q43 194 67 146Q77 126 93 106T133 68T190 37T268 18Q263 1 252 -10T213 -14Q203 -12 180 -7T130 11T73 44T20 98T-16 177T-25 287Q-22 323 -9 364T29 446T87 526T167
593T266 639T385 657Q455 657 506 628T589 554T635 452T646 341ZM243 172Q295 172 342 227T413 389Q398 377 380 370T342 374Q356 390 363 403T375 428Q379 440 380 450Q382 464 377 469T366 475Q350 475 322 457T267 406T217 331T192 239Q191 218 196 205T209
184T226 175T243 172Z" />
<glyph unicode="A" glyph-name="A" horiz-adv-x="566" d="M433 753Q468 753 490 734T510 663Q509 646 502 600T485 490T463 355T439 213H460Q470 213 482 214T507 217Q502 205 496 195T484 176Q477 167 470 160Q461 149 449 141T426 127Q419 78 415 40T409 -24Q407
-62 411 -95Q414 -124 423 -154T452 -202L336 -240Q324 -223 319 -195T311 -138Q308 -105 310 -70Q312 -35 321 21T341 145Q321 151 298 155T245 159Q219 159 191 157T134 152Q122 108 110 59Q97 6 87 -31T67 -94T48 -134T27 -156Q15 -162 -3 -167Q-20 -172 -46
-177T-113 -185Q-98 -167 -87 -152T-65 -115T-41 -59T-6 32Q3 55 12 82T33 139Q-3 134 -28 130T-58 124Q-66 123 -71 124Q-84 126 -85 137Q-84 151 -76 156T-50 168Q-42 172 -14 182T56 205Q71 247 85 288T114 368T141 439T165 497Q182 534 208 578T269 662T345
727T433 753ZM422 545Q433 590 437 619T440 664T434 687T420 694Q407 694 388 684T348 656T307 610T270 547Q247 495 218 420T155 227Q175 230 194 232T233 234Q267 234 298 232T355 226Q364 274 373 320T392 409T408 486T422 545Z" />
<glyph unicode="B" glyph-name="B" horiz-adv-x="622" d="M535 94Q529 27 495 -26T409 -115T290 -171T154 -190Q128 -190 106 -187T65 -178T35 -169T17 -161Q8 -156 3 -149T-4 -127Q-5 -119 -5 -115T-4 -105T-1 -92T6 -68Q8 -59 21 -12T54 104T95 253T139 408T177
543T202 633Q188 623 175 612T147 588Q132 574 118 578T97 603Q95 613 94 624Q93 633 94 644T102 667Q135 687 166 701T227 726Q233 743 240 752T256 764T273 766T292 763Q314 758 321 749Q335 751 348 752T375 753Q433 753 476 738T546 698T586 638T595 566Q592
533 578 498T539 428T483 361T412 301Q443 283 467 259T507 207T530 150T535 94ZM204 339Q202 329 200 319T194 298Q206 311 234 322T289 333Q303 333 316 332T341 328Q369 346 395 374T440 435T472 502T488 565Q494 634 465 667T381 701Q345 701 306 688Q298 662
286 624T261 539T232 442T204 339ZM187 273Q173 219 159 156Q146 102 131 31T99 -122Q105 -127 115 -129T135 -133Q146 -135 159 -135Q204 -135 250 -117T336 -64T401 18T433 127Q435 154 430 175T414 214T390 245T361 269Q315 244 260 227Q242 222 229 225T207
236T193 254T187 273Z" />
<glyph unicode="C" glyph-name="C" horiz-adv-x="562" d="M215 -186Q165 -186 125 -162T56 -96T13 2T0 123Q2 183 15 253T54 393T114 529T196 645T298 725T421 756Q462 756 490 740T536 696T561 635T567 566Q565 533 558 502T537 447T504 408T459 393Q447 394
436 401Q426 407 416 419T396 454Q423 465 438 492T462 550Q471 584 474 626Q476 667 457 686T414 705Q367 705 315 656T219 524T144 329T108 94Q106 38 115 -1T142 -65T182 -101T226 -112Q261 -112 292 -97T348 -60T392 -15T421 27Q428 40 436 43T450 42T458 28T454
5Q437 -29 413 -63T358 -124T291 -169T215 -186Z" />
<glyph unicode="D" glyph-name="D" horiz-adv-x="648" d="M4 -129Q-5 -123 -5 -116T-2 -102Q2 -94 10 -86Q18 -79 29 -51T52 18T77 107T101 201T120 286T132 348Q137 376 143 409Q148 438 154 476T165 562L245 598Q262 606 269 595T269 547Q266 529 258 489T240
400T218 301T195 211Q185 174 172 126Q149 44 108 -98Q122 -122 160 -122Q202 -122 257 -90T365 6T456 166T506 392Q511 462 499 515T463 604T403 658T324 676Q223 676 115 592L110 675Q136 704 169 719T232 743Q266 752 301 753Q365 753 424 729T527 654T594 529T610
352Q606 294 587 232T536 109T461 -5T367 -99T258 -163T138 -187Q119 -186 97 -180Q78 -175 54 -163T4 -129Z" />
<glyph unicode="E" glyph-name="E" horiz-adv-x="536" d="M195 -186Q148 -186 108 -171T37 -129T-12 -66T-31 14Q-32 70 -14 114T35 192T105 249T185 288Q163 300 144 317T109 355T85 399T76 445Q74 515 104 572T183 669T290 732T407 754Q445 754 472 742T516
711T541 671T551 631Q552 598 543 564T519 503T486 458T451 440Q438 440 424 444Q412 447 396 454T364 475Q390 485 410 503T443 545T463 592T470 639Q469 671 455 688T410 706Q368 706 326 686T252 629T201 542T188 432Q193 387 215 356T258 308Q274 310 288 311T314
313Q331 313 348 307T365 290Q365 282 362 272T350 253T331 238T305 232Q293 232 276 238T242 253Q204 245 173 225T121 176T87 115T76 51Q77 22 85 -7T110 -60T154 -97T221 -112Q250 -112 276 -100T326 -68T368 -26T401 19T424 59T438 85Q441 91 446 94T457 96T466
88T466 70Q458 34 436 -10T380 -94T299 -159T195 -186Z" />
<glyph unicode="F" glyph-name="F" horiz-adv-x="600" d="M383 352Q404 394 425 435T463 513T492 577T506 623Q508 641 503 654T487 675T460 687T425 693Q392 695 347 692T259 679T187 652T154 610Q153 596 159 585Q164 576 177 568T218 562Q223 562 230 563Q236
564 245 565T266 570L217 504Q203 484 187 480T158 478Q151 479 131 485T90 503T54 535T42 587Q46 623 73 653T148 706T264 740T417 752Q481 752 519 739T574 704T592 654T579 595Q573 581 562 557T534 500T500 428T464 347Q491 345 513 342T549 337Q564 333 559
324Q550 306 542 297T523 285T501 281T474 283Q465 283 456 283T437 285Q418 240 401 196T369 113T343 40T328 -15Q322 -46 319 -73Q317 -96 317 -121T325 -161Q304 -167 289 -171T262 -177Q250 -180 242 -182Q214 -189 203 -181T196 -140Q198 -118 202 -91T216
-29T241 48T281 143Q295 173 313 209T351 288Q307 288 256 282Q228 278 201 273Q178 268 152 262T102 247Q99 255 99 263T99 278Q100 285 102 292Q104 299 108 306Q114 318 127 336Q174 342 217 345T293 350Q332 352 366 352Q371 353 374 353T383 352Z" />
<glyph unicode="G" glyph-name="G" horiz-adv-x="627" d="M219 -195Q170 -195 131 -170T65 -100T26 2T16 125Q20 194 37 267T83 411T150 544T235 654T335 728T446 756Q484 756 510 737T550 688T569 619T569 544T552 472T521 415Q498 386 480 385T444 395Q437 401
430 409Q423 416 415 426T398 453Q417 460 433 476T460 514T478 558T486 605Q487 623 485 640T477 671T461 693T434 702Q394 702 356 672T285 591T223 475T173 341T139 205T123 83Q119 14 128 -29T152 -96T186 -129T219 -138Q247 -138 282 -112T349 -42T406 61T443
183Q418 183 393 183T344 181T303 179T275 175Q268 178 266 182T261 191Q259 195 259 201Q259 207 261 212Q263 217 266 222T274 234Q306 240 337 244T401 250T473 254T560 257Q580 258 584 252T581 222Q575 203 566 191T534 181Q527 181 523 182Q514 123 485 57T414
-65T322 -158T219 -195Z" />
<glyph unicode="H" glyph-name="H" horiz-adv-x="665" d="M23 -189Q-1 -189 -6 -184T-8 -162Q-7 -157 2 -118T24 -22T53 101T83 225Q62 223 52 228T42 243T53 263T84 280Q88 282 96 284Q101 301 105 319Q109 334 113 351T121 384L191 683Q197 706 209 717T256
737Q284 744 295 743T305 736Q302 725 290 683T262 581T226 448T189 304Q249 313 335 319Q368 323 399 324T460 324Q474 378 487 432T513 532T534 613T549 666Q555 685 560 697T573 716T591 726T614 731Q621 731 631 732Q639 732 650 732T675 731Q637 629 605 525T544
321Q562 319 575 318T597 315Q621 311 627 302T623 276L611 261Q605 253 596 243T573 219Q565 222 557 225T540 231Q530 234 521 237Q514 213 508 191T497 145Q485 96 474 44Q465 -1 456 -55T441 -163Q433 -167 425 -168T411 -171Q404 -172 397 -173H396H394H392Q388
-173 384 -173T376 -171Q371 -170 366 -168Q361 -166 357 -165T347 -160Q355 -127 359 -98T366 -47Q369 -21 370 -1Q371 25 365 56T345 117T312 173T267 217Q242 234 220 239T174 242Q167 212 161 184T151 130Q140 72 130 17Q122 -30 114 -80T101 -167Q85 -175
71 -179T46 -186Q34 -189 23 -189ZM419 255Q384 259 353 259T297 260Q317 249 332 231T365 190Q381 169 391 144T408 96Q416 138 425 178T442 253Q436 254 431 254T419 255Z" />
<glyph unicode="I" glyph-name="I" horiz-adv-x="550" d="M260 253Q241 273 230 302T212 361Q205 394 202 431Q197 503 218 562T275 663T355 728T442 751Q461 751 472 742T490 720T497 693T499 670Q499 638 498 607T493 541T482 466T464 377Q458 350 447 308T421
215Q466 214 493 212T529 208Q536 207 539 201T535 182Q527 170 513 168T484 166Q476 166 455 166T404 164Q383 102 357 40T298 -73T228 -155T147 -187Q85 -187 43 -164T-26 -109T-65 -46T-77 3Q-77 33 -61 64T-11 122T79 171T211 203Q243 207 272 209T327 214Q347
289 367 367T403 511Q409 538 415 569T424 629T428 676T424 697Q421 698 409 690T381 665T350 627T324 578Q306 527 296 478Q288 436 286 389T301 304Q299 290 295 281Q292 276 290 272Q287 269 283 265Q279 262 274 259T260 253ZM248 -26Q259 -3 275 45T309 156Q260
150 210 140T120 112T54 69T28 10Q28 -26 42 -53T77 -98T119 -125T156 -135Q171 -135 184 -124T209 -96T230 -60T248 -26Z" />
<glyph unicode="J" glyph-name="J" horiz-adv-x="513" d="M71 -197Q42 -197 14 -186T-36 -153T-71 -102T-82 -32Q-79 36 -55 94T1 194T66 259T121 283Q135 283 146 274T164 250T172 218T168 184Q158 191 131 179T75 139T23 68T-3 -26Q-5 -60 0 -84T16 -123T40
-145T69 -152Q105 -152 135 -125T190 -50T237 66T279 216Q285 241 294 278T315 358T338 448T362 537T383 616T399 676Q366 676 333 672Q305 669 275 664T225 649Q223 650 222 654T220 664Q219 670 218 677Q217 685 218 693Q219 700 220 708T224 726Q250 734 284
738T349 745Q384 748 421 748Q448 748 477 745Q502 743 533 739T595 727Q602 720 604 711Q605 707 605 702Q605 694 602 687Q600 681 596 675T584 664Q573 667 557 668T524 672Q506 674 486 675L380 203Q376 186 366 150T339 69T297 -23T239 -108T164 -172T71 -197Z"
/>
<glyph unicode="K" glyph-name="K" horiz-adv-x="509" d="M19 200Q14 222 19 228T45 240Q52 269 58 295T70 346Q87 418 102 474T131 576T157 657T180 724Q191 732 202 736T223 744Q234 748 246 750Q256 751 264 750Q271 749 276 746T282 737Q244 636 217 550T171
401Q150 327 136 266Q184 285 228 320T310 399T376 490T424 582T448 663T446 722Q470 733 491 739Q502 743 512 745Q538 752 544 737T549 690Q546 619 514 551T431 424T321 317T201 243Q218 245 234 246T264 247Q291 247 314 242T354 223T381 189T390 137Q388 89
377 52T354 -16T330 -75T318 -130Q317 -158 326 -176T349 -206T380 -223T410 -228Q427 -228 447 -225T482 -216Q488 -214 491 -219T495 -228Q495 -232 490 -242T471 -259Q457 -266 435 -273T375 -280Q350 -280 323 -269T274 -237T238 -189T226 -131Q227 -98 238
-65T261 -1T284 58T296 112Q298 157 273 179T188 202Q168 202 151 200T122 196Q95 60 85 -9T74 -99V-117Q74 -125 75 -133T78 -150Q60 -163 43 -169T11 -179Q-6 -183 -20 -183Q-27 -183 -33 -181Q-38 -179 -43 -177T-51 -170Q-35 -103 -20 -41T6 70Q19 126 31 177Q27
181 24 186T19 200Z" />
<glyph unicode="L" glyph-name="L" horiz-adv-x="504" d="M165 340Q114 340 83 351T40 379Q35 386 31 400T34 431Q48 420 64 415T95 407Q112 404 128 404Q158 404 186 409T243 423Q255 483 266 531T293 609Q309 642 326 668T365 713T413 742T473 752Q498 752 512
742T534 717T543 685T545 652Q545 619 529 580T484 503T415 431T324 375Q307 309 291 245T258 138Q244 99 223 51T170 -41Q189 -53 208 -66T248 -89T288 -107T332 -114Q356 -113 379 -107Q399 -102 421 -91T462 -58Q469 -70 467 -94T451 -142T414 -184T354 -202Q316
-202 283 -192T221 -166T167 -134T119 -101Q89 -130 53 -148T-27 -166Q-62 -166 -83 -147T-102 -94Q-101 -82 -95 -66T-73 -34T-27 -9T48 2Q65 2 80 -1T111 -10Q122 10 133 36T157 95Q180 158 197 221T226 345Q212 342 197 341T165 340ZM-1 -112Q12 -107 29 -102T68
-74Q53 -69 45 -69Q9 -69 -7 -79T-24 -100Q-24 -107 -18 -110T-1 -112ZM377 584Q372 569 364 540T347 473Q401 508 433 553T466 643Q466 670 450 670Q436 670 414 649T377 584Z" />
<glyph unicode="M" glyph-name="M" horiz-adv-x="751" d="M23 -187Q-16 -188 -41 -173T-81 -130T-100 -61T-100 28Q-95 65 -82 105Q-71 139 -49 180T12 260Q20 258 25 256T33 250Q36 246 37 243Q39 232 31 218T15 188Q-7 142 -18 101T-32 25Q-34 -5 -32 -29T-24
-71T-13 -98T-2 -108Q3 -108 8 -101T19 -84Q25 -74 33 -54T50 -6T67 52T83 116Q97 180 113 260T160 429Q170 466 185 510Q197 548 215 598T258 708Q258 713 266 717T286 727Q298 732 313 737Q333 744 344 745T362 742T370 732T372 717Q374 684 374 655T376 604Q377
578 377 557Q378 529 374 483T366 385T358 286T356 205Q356 188 357 174T361 145Q374 181 390 220T422 296T452 364T474 417Q486 445 506 488T546 574T584 653T610 703Q616 713 630 721T661 735T692 743T712 744Q725 741 730 736T737 729Q739 725 740 716T739 686Q737
662 728 613T705 502T676 368T646 229T622 100T608 -1Q606 -47 614 -82Q617 -97 623 -111T639 -135T663 -151T696 -154Q671 -171 647 -179T600 -187Q575 -188 556 -180T524 -156T505 -119T501 -71Q503 -47 514 8T540 132T574 277T609 419T638 534T653 597Q655 609
656 619T660 638Q650 618 636 590T605 530T573 464T541 397Q516 345 492 291T449 187T418 99T403 39V25Q403 19 403 11T406 -4L366 -35Q357 -38 351 -40T338 -42Q315 -42 303 -18Q291 4 281 68T275 225Q277 271 281 318T290 408T299 488T303 553Q304 573 302 589T298
620Q289 597 278 558T255 470T231 369T207 267T185 177T169 110Q159 70 149 19T124 -77T85 -154T23 -187Z" />
<glyph unicode="N" glyph-name="N" horiz-adv-x="554" d="M156 472Q151 454 144 421T128 344T110 254T93 160T79 74T72 5Q71 -26 72 -56Q73 -82 75 -110T85 -161Q68 -169 55 -172T34 -178Q24 -180 17 -180Q9 -180 -2 -179T-22 -168T-37 -140T-41 -85Q-40 -61 -34
-26T-18 52T2 140T25 229T45 312T62 379Q71 415 82 463Q101 545 139 709Q146 714 154 718T168 726Q175 730 182 732Q214 744 227 735T243 699Q244 681 247 647T254 571T259 485T261 402Q261 377 262 343T265 271T270 194T277 118T285 52T295 3Q297 -5 299 -12T304
-26Q310 -2 317 31T333 101T350 178T364 253Q369 281 375 325T389 420Q378 424 368 428Q359 432 350 438T335 452Q336 465 337 471T347 472Q353 469 365 465T395 459Q400 487 406 515T420 569Q431 612 445 646T477 705T521 742T579 756Q610 756 629 731T646 642Q644
595 627 558T584 492T529 445T472 418Q463 371 455 324T440 232T425 147T410 76Q403 46 395 11Q388 -19 378 -58T357 -140Q353 -149 347 -155T335 -166Q328 -171 321 -174Q301 -182 287 -177T262 -150Q251 -127 243 -93T225 -19Q216 24 212 74T205 177T201 282T197
380Q192 440 187 487T176 568Q172 548 167 523T156 472ZM492 514Q487 495 484 478Q508 492 529 513T565 559T588 607T598 651Q599 665 596 673T583 682Q578 682 568 677T544 654T518 603T492 514Z" />
<glyph unicode="O" glyph-name="O" horiz-adv-x="581" d="M524 336Q519 273 504 210T467 87T414 -23T348 -113T270 -173T183 -195Q174 -195 156 -192T116 -176T74 -139T36 -75T13 26T13 171Q25 305 62 414T148 602T249 722T341 765Q357 765 367 759T384 742Q391
744 400 745T420 746Q449 746 471 716T508 632T527 503T524 336ZM186 -137Q225 -137 266 -97T342 11T402 171T436 364Q438 391 439 426T439 497T435 568T425 631T410 675T389 692Q376 691 363 684Q352 678 338 665T309 627Q306 629 305 633T301 641Q299 645 298
650Q296 653 296 657T295 668Q275 646 248 606T193 505T143 364T111 178Q103 86 107 25T122 -72T151 -122T186 -137Z" />
<glyph unicode="P" glyph-name="P" horiz-adv-x="566" d="M-51 -143Q-47 -140 -39 -133T-19 -107T7 -52T36 46Q44 79 57 130T85 239T117 358T148 475T175 576T194 646Q175 634 157 619Q141 606 123 590T88 555Q75 566 68 579Q64 585 61 592Q55 607 55 623T80 656Q93
665 119 682T185 715T276 744T391 756Q454 756 492 731T551 670T578 594T581 524Q575 468 545 407T462 295T333 207T159 166Q151 128 143 88T126 10T108 -62T88 -120Q78 -146 62 -161T11 -177Q-7 -177 -22 -168T-51 -143ZM186 313Q183 297 179 272T168 214Q195
218 228 228T294 257T358 300T416 359T459 435T482 530Q487 580 477 613T446 667T400 696T348 705Q323 705 299 698T251 680Q254 679 258 675Q264 669 267 658Q243 561 228 496T203 390Q192 342 186 313Z" />
<glyph unicode="Q" glyph-name="Q" horiz-adv-x="597" d="M385 755Q424 755 453 738T502 694T534 632T552 564T559 498T560 447Q555 369 538 297T494 162T435 45T366 -51Q371 -56 376 -62T387 -73Q415 -101 444 -120Q469 -137 499 -148T556 -152Q557 -166 548
-173T527 -185Q514 -189 496 -190Q473 -190 448 -181T399 -158T354 -128T319 -100Q274 -144 231 -166T150 -188Q89 -188 63 -162T40 -96Q41 -77 52 -56T82 -18T129 11T191 22Q225 22 251 16T304 -4Q336 41 365 97T416 215T454 338T473 456Q477 528 469 574T446
648T413 687T380 698Q346 698 305 665T225 571T159 429T124 250Q123 208 132 175Q136 161 142 148T159 124T183 107T216 102Q214 85 203 76T180 63Q166 58 148 58Q133 58 111 70T69 110T35 179T27 282Q30 322 41 372T74 475T124 578T193 667T280 731T385 755ZM152
-119Q178 -119 206 -102T263 -54Q239 -38 212 -38Q193 -38 178 -43T151 -58T134 -77T127 -98Q126 -107 132 -113T152 -119Z" />
<glyph unicode="R" glyph-name="R" horiz-adv-x="574" d="M180 216Q192 218 204 220T230 227Q213 243 185 247Q182 231 180 216ZM589 525Q585 482 567 435T515 344T435 262T328 200Q337 183 345 164T359 121Q368 89 374 55T385 -11T393 -70T399 -116Q403 -146
418 -158T453 -172T492 -168T523 -155Q522 -156 512 -172T485 -207T445 -239T392 -248Q372 -245 357 -235T330 -204T311 -151T302 -73Q300 -11 298 45T276 150Q273 158 270 165T263 179Q222 169 171 166Q164 128 156 88T140 10T122 -61T103 -119Q93 -144 78 -159T28
-175Q8 -175 -7 -166T-36 -141Q-32 -138 -24 -132T-4 -106T21 -50T49 47Q54 72 62 105T81 179Q41 201 44 238Q46 261 65 277T111 299Q124 351 137 404T163 503T185 587T201 647Q183 635 165 620Q149 607 131 591T96 556Q88 562 83 569T75 581Q71 587 69 594Q62
608 62 624T86 658Q99 667 125 684T191 717T281 745T396 757Q459 757 498 732T558 671T585 595T589 525ZM287 250Q322 267 356 292T419 352T466 431T490 532Q494 582 484 615T453 669T406 697T354 706Q330 706 306 699T258 681Q261 680 265 676Q267 673 269 669T273
659Q250 562 236 497T213 391Q202 343 197 314Q196 310 196 306T194 297Q216 292 240 282T287 250Z" />
<glyph unicode="S" glyph-name="S" horiz-adv-x="486" d="M367 459Q366 462 373 474T388 505T405 547T417 596T417 646T396 694Q386 706 367 707T323 702T272 679T223 643T186 597T168 546Q166 525 169 507T179 474T192 446T205 423Q213 409 230 392T267 354T307
305T342 244T363 168T362 75Q351 1 327 -48T275 -128T217 -171T169 -189Q154 -192 134 -194T91 -194T45 -180T4 -147Q-17 -122 -29 -93Q-40 -68 -45 -36T-40 32Q-32 41 -23 48T-5 60Q5 66 16 71Q29 75 42 78Q53 80 65 80T89 77Q74 60 68 45Q64 37 62 31Q58 12 59
-14T70 -65T98 -107T146 -126Q219 -128 270 -12Q287 24 287 61T279 132T254 195T222 246Q206 267 184 291T139 345T100 408T76 482Q68 538 86 584T136 666T205 723T272 751Q433 783 483 697Q504 664 506 627T502 559T486 506T473 482Q467 476 454 469T412 456Q404
454 396 454Q389 454 381 455T367 459Z" />
<glyph unicode="T" glyph-name="T" horiz-adv-x="434" d="M61 626Q49 622 43 625T34 635T31 650T32 667Q33 674 35 683T42 700T51 713T66 721Q112 729 155 733T234 739Q274 742 311 742Q319 742 327 742T343 741Q352 743 357 743T367 741Q396 740 427 738Q453
736 485 734T550 727Q553 719 551 707Q550 701 549 695Q548 689 544 684Q541 679 537 675T526 667Q492 668 461 668T405 669H351Q338 623 319 556T281 414T244 266T216 133Q206 76 196 21Q192 -2 188 -27T180 -76T173 -122T168 -162Q152 -170 138 -174T113 -181Q100
-184 89 -184Q65 -184 60 -179T58 -157Q61 -143 76 -81Q82 -55 91 -16T114 80T145 212T186 386L253 664Q223 660 194 655T140 645T94 634T61 626Z" />
<glyph unicode="U" glyph-name="U" horiz-adv-x="588" d="M10 -9Q11 56 28 155Q42 240 73 372T162 690Q167 700 177 707T199 719Q211 724 226 727Q240 730 253 732Q264 734 276 734T296 732Q261 644 236 573T195 449Q176 388 164 341Q147 291 135 241T116 147T105
67T101 12Q102 -48 121 -82T183 -117Q219 -117 250 -83T308 0T354 107T383 209Q385 217 387 231Q400 293 418 369Q433 434 455 522T507 714Q515 722 525 727T543 735Q553 739 563 740Q573 742 584 742Q593 742 605 741T629 735Q609 681 590 623T556 514Q538 456
522 399Q499 327 485 270T463 164T450 74T441 -8Q438 -40 440 -68Q442 -93 447 -118T465 -160Q460 -167 451 -170T432 -175Q421 -177 408 -177Q382 -177 370 -145T356 -41Q348 -57 331 -81T289 -129T229 -170T153 -187Q111 -187 84 -173T40 -134T17 -77T10 -9Z"
/>
<glyph unicode="V" glyph-name="V" horiz-adv-x="516" d="M172 -194Q147 -193 128 -168T95 -103T72 -12T56 91T48 193T46 281Q47 341 55 404T74 524T95 623T111 685Q118 714 130 724T175 737H199Q209 736 219 735T237 730Q201 658 179 584T145 436T130 291T129
152Q131 99 135 54T148 -39Q157 -85 169 -92T194 -83T219 -35T241 29Q247 50 259 89T286 177T317 277T348 373T372 451T387 495Q393 511 403 539T426 599T452 662T478 718Q490 741 505 745T534 741T561 715T583 680Q570 675 557 656T532 614Q519 588 507 558Q499
536 486 500T459 421T429 332T399 245T374 172T355 123Q345 99 332 68T305 3T275 -62T245 -121Q224 -159 210 -176T172 -194Z" />
<glyph unicode="W" glyph-name="W" horiz-adv-x="837" d="M144 -191Q115 -191 91 -166T51 -93T29 24T29 183Q33 242 45 303T72 422T104 531T135 621T159 685T171 713Q174 718 182 723T202 733T227 739T253 742Q263 742 272 741Q280 740 288 738T302 732Q291 725
281 711T261 680Q250 662 241 641Q221 599 199 539T158 412T124 275T104 144Q96 21 113 -39T161 -100Q176 -100 193 -81T227 -32T262 35T294 108Q303 131 313 159T334 218T355 277T373 331Q373 361 374 394T378 462T388 530T404 592Q424 646 451 671T498 698Q512
698 518 686T523 654Q521 628 514 592T498 514T476 430T453 348Q435 245 431 162T432 19T451 -73T484 -106Q506 -106 530 -76T579 3T625 116T666 245T697 376T713 493Q716 536 716 578Q716 614 713 655T702 729Q715 740 737 747Q748 751 761 754Q769 756 778 757Q786
758 794 758T809 757Q815 743 817 721T821 678Q822 653 820 626Q812 520 793 418T745 225T683 57T612 -76T539 -163T469 -194Q434 -194 413 -165T381 -91T367 5T365 99Q342 43 316 -9T261 -101T203 -166T144 -191Z" />
<glyph unicode="X" glyph-name="X" horiz-adv-x="593" d="M700 681Q692 686 682 684T662 678Q651 674 641 666Q614 644 562 584T447 431Q421 390 393 349T335 263Q339 217 342 180T350 108T362 38T383 -38Q396 -80 411 -101T454 -122Q481 -122 505 -108T549 -78T580
-47T594 -33Q598 -33 600 -41T602 -58Q602 -65 589 -86T551 -129T494 -170T422 -188Q381 -188 355 -159T312 -81T286 31T269 164Q250 134 231 104T193 43Q150 -26 124 -73T76 -144Q60 -161 47 -166T17 -169Q2 -166 -10 -160Q-21 -155 -32 -147T-51 -124Q-38 -121
-26 -112T-3 -94Q8 -83 19 -70Q27 -60 51 -25T108 60T180 169T258 288Q253 340 247 393T233 495Q218 474 196 455T152 435Q129 435 107 448T68 483T42 536T35 602Q37 623 47 650T74 702T115 743T171 760Q201 760 223 747T261 700T290 604T315 447Q317 431 319 416T323
386Q357 439 384 480T426 543Q452 582 478 619T531 686T582 732T632 750Q643 750 653 743T673 725T688 702T700 681ZM183 525Q194 525 206 529T226 537Q220 573 213 603T196 654T177 688T155 701Q135 701 122 680T104 620Q102 601 107 584T122 553T148 533T183
525Z" />
<glyph unicode="Y" glyph-name="Y" horiz-adv-x="545" d="M157 77Q90 77 60 120T34 236Q38 281 51 351Q62 411 84 502T146 722Q158 730 170 734T193 741Q204 744 216 745Q225 746 235 746Q243 746 251 745T264 739Q213 608 185 515T142 362Q125 292 121 247Q118
192 137 169T196 146Q227 146 259 169T321 236T376 341T420 480Q428 523 438 566Q446 603 456 645T475 725Q484 733 494 737T514 745Q525 749 536 750Q546 751 556 750Q564 749 572 747T586 740Q569 687 557 644T535 570Q524 534 516 506Q508 476 497 428Q486 386
470 322T431 164Q425 140 416 104T393 29T357 -48T304 -118T229 -168T129 -187Q96 -186 70 -177Q47 -169 28 -154T5 -109Q10 -98 16 -89T28 -72Q35 -63 42 -55Q49 -48 57 -42Q64 -37 72 -33T88 -29Q92 -38 100 -50T120 -72T147 -90T180 -97Q204 -97 231 -82T284
-29T336 73T383 234Q370 211 350 184T303 133T239 93T157 77Z" />
<glyph unicode="Z" glyph-name="Z" horiz-adv-x="466" d="M72 167Q93 193 121 227T180 300T244 380T306 461T358 535T395 597Q401 610 405 622Q409 633 411 644T412 667Q383 667 343 666T259 659T170 644T88 616Q83 620 82 629T82 649Q83 660 87 675Q91 688 96
699Q101 708 106 717T120 730Q158 735 191 738T250 743Q280 745 305 745Q340 744 373 743Q402 741 434 740T495 733Q500 719 502 704T506 677Q507 663 507 649Q505 614 476 558T402 442Q387 423 364 395T313 332T253 259T190 182T129 106T76 36Q50 1 33 -32T5 -91Q31
-81 85 -69T213 -56Q252 -56 286 -59Q315 -61 343 -66T386 -81Q384 -91 376 -105Q369 -117 354 -134T313 -175Q274 -167 240 -163T180 -156Q150 -153 125 -153Q100 -153 71 -157Q46 -160 15 -165T-52 -182Q-62 -176 -67 -161T-76 -131Q-80 -113 -82 -92Q-56 -33
-29 14T22 96Q48 136 72 167Z" />
<glyph unicode="[" glyph-name="bracketleft" horiz-adv-x="207" d="M116 367Q101 310 87 250T62 138T44 51T36 4Q32 -17 39 -35T75 -53H101L92 -109L0 -114Q-8 -114 -17 -114T-33 -107T-44 -89T-44 -53Q-41 -31 -32 13T-11 116T16 240T47 374Q64 446 83 517T118
646T147 745T163 797Q178 844 210 848Q218 849 232 849T261 849T289 849T309 848L293 777Q280 777 268 776T245 770T226 754T211 723Q188 646 171 582T141 469Q127 413 116 367Z" />
<glyph unicode="\" glyph-name="backslash" horiz-adv-x="280" d="M119 746Q120 738 122 710T129 640T139 547T152 443T167 339T184 247Q193 200 203 155Q211 117 221 75T239 3Q228 -5 218 -8T200 -14Q190 -16 181 -16Q161 -16 155 -12T146 7Q145 19 137 70Q134
92 129 124T117 204T101 313T79 457L42 702Q39 722 45 731T78 749Q98 754 108 753T119 746Z" />
<glyph unicode="]" glyph-name="bracketright" horiz-adv-x="222" d="M91 368Q106 425 120 485T145 596T162 683T171 731Q175 751 168 769T132 787H104L114 844L207 848Q214 848 223 848T240 841T251 823T251 787Q248 765 239 721T218 619T190 494T159 360Q142
288 124 217T89 88T60 -10T44 -62Q29 -109 -3 -114Q-12 -115 -26 -115T-54 -115T-82 -115T-102 -114L-87 -43Q-74 -43 -62 -42T-38 -36T-19 -20T-4 12Q18 88 36 153T66 266Q80 322 91 368Z" />
<glyph unicode="^" glyph-name="asciicircum" horiz-adv-x="294" d="M284 729Q286 711 287 694T290 659Q295 606 301 556Q306 513 312 467T325 388Q317 380 308 376T291 370Q282 367 273 368Q254 368 249 373T242 393Q242 396 240 422T235 488T229 576T223 673Q193
621 149 546T56 389Q53 385 46 381Q40 378 30 376T4 373Q-10 371 -15 374T-21 382Q-22 386 -18 393Q-16 398 -13 402Q-11 406 -9 410T-4 417L161 696Q173 717 183 727Q189 732 205 736T238 741T269 741T284 729Z" />
<glyph unicode="_" glyph-name="underscore" horiz-adv-x="450" d="M398 57Q406 54 408 47T404 20Q398 2 391 -3T377 -10Q374 -11 350 -9T292 -5T217 -1T140 0Q73 -2 18 -4T-83 -11Q-104 -13 -109 -4T-112 18Q-109 31 -103 47T-81 65Q-33 70 11 72T90 75Q130 76
167 75Q213 77 253 75T325 69T375 62T398 57Z" />
<glyph unicode="`" glyph-name="grave" horiz-adv-x="581" d="M329 692Q335 689 350 679T383 655T415 628T436 605Q447 587 439 578T420 562Q377 585 349 600T302 624Q281 635 269 641Q260 646 262 659T275 685Q291 701 303 700T329 692Z" />
<glyph unicode="a" glyph-name="a" horiz-adv-x="446" d="M513 199Q499 179 477 150T432 91T386 37T348 2Q338 -4 325 -8T299 -13T273 -12T252 -3Q243 4 237 17Q232 28 228 46T224 91Q200 51 171 30T116 -2Q86 -13 56 -15Q42 -15 26 -6T-1 24T-15 77T-7 155Q7
216 37 266T104 351T175 405T233 421Q260 416 277 405Q291 395 295 376T279 324Q293 327 302 328T317 329Q323 329 325 328Q326 326 326 320T323 296T314 250T298 175Q296 166 295 159T292 144T288 126T283 101Q282 92 282 82T286 62T295 48T314 42Q324 42 340
54T374 86T411 129T448 175T478 214T498 239Q506 248 514 249T526 245T528 227T513 199ZM220 155Q225 175 232 202T244 254T251 295T250 311Q245 310 239 308Q234 306 226 305T210 302Q218 318 219 328T220 345Q219 352 216 356Q205 365 178 342T114 255Q99 229
90 200T78 144T76 99T84 73Q95 62 109 62T137 70T166 90T192 115T211 139T220 155Z" />
<glyph unicode="b" glyph-name="b" horiz-adv-x="425" d="M229 573Q214 513 196 459T158 357T119 270T84 202Q74 130 84 86T123 42Q147 42 170 64T211 118T241 186T257 252Q238 257 225 269T212 303Q212 317 220 329T239 351T263 365T287 370Q304 370 316 349T332
294Q372 295 416 306T499 334Q510 339 517 337T526 329T526 316T514 304Q491 291 467 281T418 263T372 252T332 248Q328 208 307 162T256 76T190 10T118 -16Q107 -16 89 -13T54 8T25 65T15 178Q16 227 26 282T50 392T81 498T115 591T144 661T165 697Q174 708 186
713T209 721T231 723T245 720Q251 716 249 676T229 573Z" />
<glyph unicode="c" glyph-name="c" horiz-adv-x="372" d="M170 34Q201 34 238 58T311 116T376 183T421 239Q430 252 438 254T450 252T453 237T444 213Q437 201 421 179T382 130T331 76T271 26T207 -11T142 -26Q98 -26 69 -10T22 33T-3 90T-10 153Q-10 184 4 230T45
318T115 391T214 422Q246 422 268 400T290 340Q290 322 284 305T268 274T245 252T215 244Q202 244 196 253T188 275T187 300T191 316Q196 323 202 326T216 333Q222 336 225 342T229 355T225 367T212 372Q203 372 180 358T132 315T88 243T68 143Q67 110 77 89T102
56T135 39T170 34Z" />
<glyph unicode="d" glyph-name="d" horiz-adv-x="495" d="M318 191Q313 160 309 132T303 87Q302 62 312 51T334 40Q348 40 368 54T412 89T458 135T500 182T533 222T552 244Q558 250 564 251T575 249T579 238T571 218Q559 199 540 174T498 121T450 68T399 22T350
-10T307 -23Q293 -23 281 -15T258 6T243 35T238 67Q239 74 241 91Q199 44 157 17T75 -11Q61 -11 45 -4T17 19T-4 61T-10 124Q-7 182 13 234T63 324T132 385T210 408Q227 408 241 400T265 378T281 348T291 318Q298 347 304 375T316 428Q326 465 337 508Q347 545
360 593T389 694Q399 702 408 706T425 712Q434 715 442 715Q452 715 460 713T473 700T481 668T481 611Q479 567 466 515T430 408T380 297T318 191ZM259 178Q263 197 266 216T275 255Q273 254 272 253T268 251Q257 246 253 251T249 269Q249 275 248 290T243 322T229
351T204 364Q181 364 157 341T112 284T77 212T61 144Q59 96 73 75T111 54Q129 54 150 68T192 102T230 143T259 178Z" />
<glyph unicode="e" glyph-name="e" horiz-adv-x="381" d="M453 208Q423 164 385 123T305 49T218 -4T131 -24Q109 -24 84 -14T37 19T4 76T-4 161Q0 202 21 247T74 331T145 394T225 419Q263 419 280 400T295 353Q292 322 278 296T243 249T201 211T158 180Q136 165
116 152T81 127Q82 102 90 85T110 58T137 43T169 38Q203 38 240 59T312 111T378 175T429 232Q436 240 443 241T455 240T460 228T453 208ZM197 362Q185 362 169 350T136 316T106 261T85 186Q97 195 111 204T139 225Q182 258 199 283T218 326Q220 345 214 353T197
362Z" />
<glyph unicode="f" glyph-name="f" horiz-adv-x="333" d="M20 104Q9 115 5 125T-2 146Q-4 157 -2 168Q2 182 10 194Q17 205 29 216T61 238Q74 270 84 305T103 370Q112 404 119 438Q144 523 145 576T143 647Q142 654 141 661Q139 667 138 674T134 689Q145 695 153
699T168 705Q175 708 181 709Q204 714 224 714T247 707Q248 702 249 689T251 657T248 615T237 565Q230 542 218 501Q207 466 189 408T142 258Q172 268 208 277T281 292T356 301T426 302Q432 302 434 297T435 285T424 274T399 267Q379 265 355 263T306 256T255 245T208
229Q191 223 174 217Q160 212 145 206T119 194L96 121Q154 80 185 37T231 -42Q248 -84 250 -124Q250 -168 237 -212T203 -297T153 -373T93 -433T29 -471T-33 -481Q-54 -479 -68 -468T-89 -439T-97 -400T-93 -357Q-89 -336 -76 -279Q-65 -231 -42 -140T20 104ZM79
57Q65 7 55 -35T37 -109Q28 -146 23 -176Q14 -214 5 -251T-10 -317T-15 -365T-2 -383Q27 -385 58 -361T116 -299T159 -218T176 -137Q176 -96 163 -56Q154 -35 142 -15Q131 2 116 21T79 57Z" />
<glyph unicode="g" glyph-name="g" horiz-adv-x="471" d="M264 -143Q259 -167 252 -203T235 -279T213 -358T185 -429T152 -481T112 -501Q79 -501 56 -482T16 -433T-7 -369T-15 -306Q-15 -266 -8 -240T16 -189T64 -138T141 -71Q164 -51 185 -33T225 0Q230 20 234
37T242 69Q216 34 180 10T96 -14Q53 -14 27 24T0 138Q0 175 14 223T54 313T118 384T203 413Q225 413 241 402T268 375T285 340T294 305Q296 311 297 317T300 329Q310 363 322 375T360 388Q374 388 383 383T393 374Q388 363 385 357T379 345T373 328T365 299Q363
292 358 267T344 206T326 129T307 47Q335 63 365 86T422 133T470 178T501 214Q509 226 519 231T536 235T545 226T539 205Q516 168 483 134T416 70T349 18T293 -19Q283 -64 276 -92T264 -143ZM138 54Q159 54 177 65T211 90T236 120T251 144Q255 153 260 168T269
197T272 222T264 234Q258 235 255 242T249 258T247 276T245 292Q240 327 228 343T201 359Q176 359 154 339T114 288T86 219T76 147Q76 105 88 80T138 54ZM92 -410Q112 -410 124 -381T151 -300Q154 -288 159 -266T172 -214T188 -152T205 -84Q197 -91 189 -98T171
-116Q149 -137 129 -156T92 -197T67 -244T57 -302Q57 -335 59 -356T66 -389T77 -405T92 -410Z" />
<glyph unicode="h" glyph-name="h" horiz-adv-x="477" d="M516 220Q523 228 530 228T542 225T547 211T538 191Q519 165 494 138T441 84T383 35T327 -3Q297 -20 277 -20T236 6Q218 29 218 55T230 122Q237 147 249 181T269 248T274 302T248 325Q232 325 214 314T177
286T141 246T111 203Q103 164 95 126Q88 94 81 57T66 -10Q60 -15 53 -17T40 -19Q33 -19 26 -18Q18 -16 11 -12Q5 -8 -1 -2T-10 16Q35 201 61 313T101 484Q117 554 123 581Q126 600 128 618Q130 634 130 651T127 682Q135 687 144 690T163 695Q174 698 185 700Q196
702 205 702Q213 702 220 701T229 694Q235 689 235 674T232 643Q228 624 223 602Q202 521 176 445T128 281Q141 301 159 322T198 360T244 389T295 401Q309 401 321 397T343 382T358 354T362 310Q362 294 359 277T349 240T334 194T311 136Q302 113 297 97T299 69Q308
53 334 61T414 113Q426 123 441 138T470 168T496 198T516 220Z" />
<glyph unicode="i" glyph-name="i" horiz-adv-x="281" d="M220 589Q217 578 209 568T190 551T168 542T150 546Q129 562 128 580T137 615T162 643T188 657Q199 659 206 653T218 636T222 612T220 589ZM82 376Q87 382 101 386T130 392T157 395T172 395Q173 394 167
374T152 327T133 272T118 225Q113 207 106 185T94 141T86 100T89 71Q94 59 100 55T113 50Q133 50 163 72T225 124T284 186T324 237Q332 247 340 250T354 249T360 236T354 215Q338 187 307 149T241 75T173 14T118 -12Q101 -13 85 -7T55 11T32 38T22 71Q19 96 22
139T33 228T53 315T82 376Z" />
<glyph unicode="j" glyph-name="j" horiz-adv-x="274" d="M238 618Q238 609 232 597T215 574T192 556T166 548Q155 548 146 559T138 589Q138 602 145 616T164 643T189 662T215 670Q232 670 235 654T238 618ZM-112 -454Q-139 -454 -159 -439T-191 -401T-210 -351T-215
-300Q-214 -279 -200 -246T-159 -176T-96 -100T-14 -31Q-8 0 -2 32T11 95T23 153T36 202Q43 229 51 259Q58 285 67 316T86 380Q96 385 105 387T121 390Q129 391 136 390Q143 389 150 386Q163 381 173 368Q156 314 145 276T125 213Q116 184 111 164Q102 136 95 101T79
24Q121 50 163 85T241 153T301 212T332 245Q339 253 346 253T357 249T362 235T352 213Q338 193 310 163T246 99T169 32T86 -26Q77 -31 66 -39Q52 -98 39 -155T10 -261Q-5 -309 -17 -345T-42 -406T-71 -442T-112 -454ZM-148 -328Q-150 -363 -143 -380T-124 -398Q-116
-398 -107 -381T-89 -338T-72 -282T-57 -224T-46 -178T-41 -156Q-39 -148 -37 -139T-33 -119Q-56 -143 -76 -168T-112 -221T-137 -275T-148 -328Z" />
<glyph unicode="k" glyph-name="k" horiz-adv-x="451" d="M513 199Q490 161 461 121T398 47T330 -9T260 -31Q225 -31 210 -8T195 45Q195 58 197 68T203 86T209 102T216 122Q220 135 217 145T208 164Q199 154 188 147T159 139Q147 139 137 150T127 179Q127 193
133 202T148 216T166 223T181 225Q184 225 193 224T214 221Q250 250 265 273T268 316Q260 329 248 329T223 324T198 307T175 288Q155 268 131 241T90 195Q83 165 76 132Q70 103 63 67T47 -9Q41 -12 35 -13T23 -16Q17 -17 11 -17Q3 -17 -4 -17T-15 -12T-20 3T-15
31Q-7 57 5 100T30 196T56 304T82 412T102 505T115 571Q118 597 121 621Q123 641 123 660T121 690Q126 695 135 699T155 705Q166 708 181 710Q198 712 209 711T226 701Q232 691 229 668T214 602Q200 548 186 504T158 420T132 345T109 270Q129 299 159 331T227 385Q267
406 293 406Q325 406 339 385T352 334Q351 311 341 292T315 256T283 227T254 207Q268 199 278 186T288 152Q287 125 278 105T268 67Q269 54 273 48T293 42Q320 42 349 65T405 118T453 177T487 221Q504 239 515 231T513 199Z" />
<glyph unicode="l" glyph-name="l" horiz-adv-x="224" d="M-15 16Q29 201 55 313T96 484Q112 554 118 581Q121 600 123 618Q125 634 125 651T122 682Q130 687 139 690T158 695Q169 698 180 700Q191 702 200 702Q208 702 215 701T224 694Q230 689 230 674T227 643Q223
624 218 602Q206 559 185 478Q167 409 137 290T60 -10Q55 -15 48 -17T35 -19Q28 -19 20 -18Q13 -16 6 -12Q0 -8 -6 -2T-15 16Z" />
<glyph unicode="m" glyph-name="m" horiz-adv-x="735" d="M466 46Q466 67 470 94T482 149T496 205T508 253Q514 279 507 293T483 307Q475 307 452 293T401 245T347 152T305 3Q286 -7 269 -10Q260 -12 253 -13Q233 -14 227 -7T229 30Q233 44 243 75T264 142T281
215T289 279Q289 298 283 305T264 312Q255 312 234 302T187 263T136 183T92 49V51Q90 43 88 35Q86 28 85 20T82 5L32 -17Q27 -19 20 -20T6 -18T-4 -3T-2 30L61 291Q64 304 66 316Q68 327 68 337T67 355Q84 363 97 367T118 373Q128 376 135 376Q167 376 156 321Q152
305 144 274Q163 298 184 319T228 358T272 385T317 395Q334 395 345 385T363 359T371 320T369 273Q385 294 404 315T445 354T490 382T536 393Q563 393 577 377T597 336T601 282T592 226L558 91Q547 41 579 41Q604 41 634 65T692 122T746 190T788 246Q794 253 800
254T811 252T816 240T811 220Q791 185 762 143T699 63T625 1T544 -24Q530 -24 517 -21T492 -10T473 11T466 46Z" />
<glyph unicode="n" glyph-name="n" horiz-adv-x="473" d="M297 -25Q274 -25 258 -17T231 6T218 38T220 78Q223 92 230 115T244 166T258 221T267 271T265 308T248 323Q232 323 215 313T181 284T146 243T111 194Q102 160 96 135T86 89T77 53T70 23Q67 13 52 4T20
-12T-9 -18T-20 -9Q-19 -3 -14 18T-1 67T15 128T30 189Q35 212 41 240Q46 264 53 296T71 366Q78 372 85 375T101 381Q109 384 118 385Q126 385 134 384Q141 383 148 381T162 373Q159 366 155 354T147 327Q143 311 137 294Q150 312 166 330T202 364T244 388T289
398Q308 398 323 387T346 357T356 310T349 251L338 207Q333 186 326 158T307 95Q301 73 302 57T322 41Q340 41 367 63T423 116T476 179T514 232Q523 245 531 249T543 250T548 237T540 210Q533 196 519 173T484 124T441 72T393 24T344 -11T297 -25Z" />
<glyph unicode="o" glyph-name="o" horiz-adv-x="403" d="M296 159Q286 121 269 88T229 31T176 -6T111 -20Q70 -20 47 -3T12 41T-2 98T-5 156Q-5 175 -1 198T12 245T32 293T62 337Q68 354 80 367T109 388T145 401T182 406Q185 406 187 405T193 403Q206 402 225
393T263 366T295 321T308 254Q308 246 307 235T305 215Q328 224 353 237T401 264T445 294T477 321Q487 330 494 331T504 327T505 313T494 293Q489 287 469 269T420 230T359 189T296 159ZM127 311Q124 302 124 292Q124 276 126 259T136 227T161 204T210 194Q215
194 220 194T230 196Q233 209 235 219T238 238Q240 257 238 277T231 313T217 340T196 351Q177 351 160 341T127 311ZM63 135Q63 117 65 100T73 69T89 47T115 38Q133 38 148 46T175 68T196 99T213 136Q206 135 200 135T185 134Q147 134 120 156T77 214Q71 193 67
173T63 135Z" />
<glyph unicode="p" glyph-name="p" horiz-adv-x="462" d="M-72 -427Q-79 -424 -86 -418Q-92 -413 -98 -406T-108 -387Q-80 -280 -61 -201T-27 -69Q-12 -7 -1 35Q9 75 19 115Q27 150 36 190T54 265Q64 304 66 327T51 368Q63 378 75 383T98 391Q109 394 120 393Q147
391 153 376T155 328Q154 323 154 320T153 312Q167 328 184 343T218 370T254 389T290 397Q313 397 327 386T350 355T360 313T361 266Q360 241 353 213T332 156T302 99T266 47Q270 46 271 46T272 45T273 44T280 43Q303 43 327 55T374 85T418 126T457 168T487 205T505
229Q513 239 520 242T531 243T535 232T529 210Q525 201 512 181T480 136T437 84T385 35T330 -1T274 -16Q261 -16 253 -15T240 -12T229 -7T217 -1Q199 -15 180 -22T143 -30Q126 -30 114 -25T93 -10T80 11T72 34Q71 30 71 27T69 19Q57 -29 44 -92Q33 -146 18 -223T-15
-400Q-21 -427 -36 -431T-72 -427ZM111 193Q106 176 101 154T88 100Q96 106 106 109T126 112Q137 112 154 101T195 76Q210 94 226 116T256 163T279 212T290 260Q292 290 283 307T253 324Q222 324 186 288T111 193Z" />
<glyph unicode="q" glyph-name="q" horiz-adv-x="474" d="M244 53Q233 38 220 23T192 -4T160 -23T124 -31Q77 -31 51 -12T13 33T-2 86T-5 131Q-5 177 13 224T61 311T129 374T208 399Q233 399 250 389T278 363T294 331T302 301Q304 313 306 326Q308 337 310 350T314
375Q320 380 327 383T343 388Q352 390 361 391Q370 391 378 390Q394 388 400 379Q372 287 360 241Q353 215 349 196Q345 182 338 153T320 86T299 5T278 -81Q300 -59 325 -34T377 18T428 73T476 130Q489 146 498 150T512 150T515 135T504 112Q488 90 469 66T430
17T388 -32T348 -76Q328 -96 304 -118T257 -171Q253 -190 251 -205T246 -232Q241 -267 240 -291T238 -334T239 -368T240 -401Q241 -437 238 -451T214 -465Q204 -465 188 -456T157 -431T132 -392T121 -340Q121 -302 136 -266T176 -194Q183 -169 191 -138T209 -75T227
-9T244 53ZM81 104Q81 75 88 59T106 36T128 27T146 26Q167 26 187 43T223 87T252 143T271 200Q274 215 276 227T281 247Q262 245 255 255T247 290Q247 300 245 311T238 332T225 348T205 354Q179 354 157 330T117 269T91 188T81 104Z" />
<glyph unicode="r" glyph-name="r" horiz-adv-x="416" d="M-38 5Q-45 -6 -53 -9T-68 -11T-77 0T-73 20Q-70 26 -60 47T-35 97T-3 161T29 227T58 282T77 318Q66 328 62 332T56 352Q54 365 62 386T83 426T112 460T143 474Q171 474 182 456T196 419Q198 406 194 386T179
350Q182 348 187 346T203 343Q219 343 225 345T246 347Q263 347 274 339T292 318T302 291T307 264Q310 239 294 212T255 153Q241 133 227 108T215 63Q217 50 222 42T250 34Q267 34 287 46T329 78T372 121T411 167T441 208T460 234Q465 242 473 245T487 245T494
233T487 209Q481 199 467 177T432 128T386 73T334 21T279 -18T226 -33Q200 -33 183 -23T156 1T141 33T137 66Q138 78 143 91T156 119T172 148T188 177Q205 206 215 226T226 261Q226 270 222 277T209 284Q203 284 201 284T196 283T189 283T175 282Q162 282 153 286T136
292Q132 285 118 262T86 208T47 143T8 80T-22 30T-38 5Z" />
<glyph unicode="s" glyph-name="s" horiz-adv-x="360" d="M141 34Q147 30 156 30T175 34T193 45T206 63Q210 74 206 94T194 138T175 186T158 230Q152 245 148 258Q144 269 141 279T135 294Q130 286 118 268T91 231T63 195T45 172Q37 163 30 162T17 164T12 177T19
198Q25 206 37 223T61 259T83 292T94 310Q96 318 89 331T86 361Q90 375 104 393T137 427T176 449T212 449Q225 441 233 432T239 412Q237 407 233 399Q229 391 221 380T198 350Q201 327 206 308T217 275Q223 258 230 244Q239 226 249 207T267 170T280 135T283 108Q280
91 266 67T230 21T181 -18T123 -34Q102 -34 83 -21T50 9T30 44T28 70Q34 82 39 89T54 105Q58 108 64 112Q69 115 78 118T99 125Q109 94 117 77T130 49Q136 38 141 34Z" />
<glyph unicode="t" glyph-name="t" horiz-adv-x="309" d="M369 253Q373 259 379 260T390 259T394 249T389 230Q369 192 337 148T268 66T198 2T141 -23Q108 -23 86 -10T52 22T34 63T31 105Q32 121 38 162T54 258T76 375T103 496Q86 494 69 492T38 490Q6 490 -22
497T-65 512Q-73 516 -72 523T-66 538T-54 551T-40 557Q-21 555 1 554T49 553Q68 554 85 556T120 561Q133 609 145 644T168 694Q171 699 181 702T204 707T227 708T243 700Q248 692 247 659T236 575Q278 575 310 571T366 561T403 550T424 542Q431 540 431 532T429
516T417 501T399 497Q389 498 377 501T347 506T305 510T249 512Q243 512 236 512T220 511Q216 495 213 480T203 447Q190 407 173 360Q158 319 137 266T90 153Q84 110 91 88T110 55Q123 44 142 43Q157 41 178 53T223 87T269 133T313 182T348 225T369 253Z" />
<glyph unicode="u" glyph-name="u" horiz-adv-x="480" d="M124 -16Q86 -16 62 -4T25 25T6 63T0 101Q0 131 5 164T17 226T29 275T37 300Q46 329 60 350T101 380Q111 382 122 384Q131 385 140 385T158 382Q131 313 116 267T92 192Q83 159 81 139Q76 94 89 71T142
48Q168 48 192 67T236 118Q233 134 233 151Q233 183 238 213T251 270T267 318T282 351Q293 375 302 380T331 387Q339 388 344 388T354 386Q366 383 366 374Q366 358 364 326T352 260Q345 232 339 213T326 180T314 158T303 142Q305 112 308 94T315 67T326 54T341
50Q355 50 374 63T413 97T454 142T492 189T521 227T536 248Q543 257 549 259T560 258T564 247T560 230Q540 192 511 150T448 71T380 11T316 -13Q289 -13 274 5T247 59Q224 23 193 4T124 -16Z" />
<glyph unicode="v" glyph-name="v" horiz-adv-x="438" d="M293 178Q267 140 240 104T187 40T140 -6T105 -24Q74 -24 55 5T25 78T12 171T12 260Q16 299 21 322T33 359T51 378T78 388Q85 390 94 391T110 391T122 384T123 369Q121 360 117 343T107 303T98 257T91
211Q88 173 91 145T100 97T113 67T124 57Q129 57 142 70T173 106T210 157T247 217Q241 233 242 255Q245 289 257 316T284 363T316 392T346 403Q372 403 378 390T383 362Q381 341 365 305T322 225Q327 223 333 221T347 219Q381 219 408 227T456 246T491 269T515
290Q521 296 527 296T537 293T541 284T535 271Q499 227 448 200T327 173Q321 173 312 174T293 178Z" />
<glyph unicode="w" glyph-name="w" horiz-adv-x="662" d="M521 173Q507 137 489 103T449 42T402 -1T348 -17Q301 -17 277 14T244 92Q230 71 214 50T180 13T143 -13T105 -23Q79 -23 61 -12T32 18T15 63T10 118V130Q10 167 16 206T29 278T45 335T57 368Q64 378 87
387T134 395Q145 394 145 386T143 366Q139 349 129 315T109 241T90 162T82 97Q82 65 92 51T123 37Q148 37 178 65T238 160Q237 166 237 172T237 185Q237 230 240 271T254 343T283 392T332 410Q344 410 352 403T360 383Q360 351 338 293T284 164Q281 160 280 156Q283
137 287 116T300 78T319 49T345 37Q367 37 385 58T418 109T444 172T461 232Q458 243 456 253T454 278Q454 309 463 331T486 367T517 389T548 396Q573 396 573 374Q573 358 565 319T542 229Q560 221 588 221Q614 221 636 227T676 244T709 266T738 289Q749 297 756
290T754 268Q746 255 727 238T680 206T619 180T548 169Q542 169 535 170T521 173Z" />
<glyph unicode="x" glyph-name="x" horiz-adv-x="409" d="M437 132Q395 79 363 49T305 3T261 -16T227 -20Q208 -20 195 -11T173 11T159 38T151 62Q147 73 143 87T133 118Q113 97 91 73Q72 53 48 28T-1 -24Q-10 -26 -17 -24T-29 -20Q-35 -17 -39 -13Q-42 -10 -45
-6Q-47 -3 -49 1T-51 11Q-22 44 6 76T58 135Q84 165 108 193Q94 231 83 264T67 311Q57 340 50 359T24 386Q36 397 47 403T68 413Q79 417 87 417Q110 417 127 377T163 265Q163 262 165 258Q186 283 205 305T239 344T263 371T274 383Q294 406 310 409T339 402Q345
398 352 394Q365 386 383 379Q366 363 346 343T307 303Q286 281 265 259Q250 244 230 222T186 174Q193 149 201 127T217 88T235 61T254 51Q270 51 290 59T332 83T376 118T421 160Q429 168 436 169T447 166T449 153T437 132Z" />
<glyph unicode="y" glyph-name="y" horiz-adv-x="416" d="M263 368Q276 378 288 383T311 391Q322 394 333 393Q360 391 366 376T368 328Q365 311 356 285T335 222T310 136T284 28Q272 -21 258 -85Q246 -141 230 -220T194 -401Q189 -426 173 -430T138 -426Q131
-422 125 -417Q120 -412 114 -406T104 -388Q127 -304 144 -235T176 -115Q191 -56 204 -9Q209 12 213 32T223 73Q210 52 195 33T162 0T124 -21T81 -26Q27 -19 5 14T-15 100Q-14 121 -9 146T2 194T13 235T22 262Q34 300 39 327T31 372Q45 381 57 384T80 390Q91 391
102 390Q129 386 133 370T130 322Q126 305 117 279T98 224T80 173T71 139Q62 94 70 70T105 45Q118 45 134 56T166 87T199 130T228 180T252 229T268 272Q275 309 277 330T263 368Z" />
<glyph unicode="z" glyph-name="z" horiz-adv-x="459" d="M520 161Q513 151 498 132T461 91T412 46T353 3Q349 -20 338 -62T309 -155T267 -256T214 -350T149 -419T75 -446Q36 -446 14 -433T-18 -400T-31 -355T-32 -307Q-31 -277 -14 -238T33 -158T107 -81T203
-19Q229 -8 251 2T292 23Q300 56 294 67T275 78Q257 78 233 62T172 12Q162 11 155 14T142 23Q136 28 132 35Q121 52 122 69T138 96Q152 107 179 131T233 194Q241 205 252 221T275 257T297 298T314 338Q294 341 256 337Q236 333 213 328Q193 323 168 315T114 293Q110
295 108 301T105 315Q104 324 104 335Q104 349 108 358T120 374T135 383T149 389Q156 391 176 394T223 401T277 405T328 406Q375 403 387 394T394 364Q387 344 367 297T306 187Q289 164 275 144T248 109Q265 117 282 121T316 126Q339 126 346 104T355 56Q395 81
426 109T494 181Q503 192 510 194T522 192T526 179T520 161ZM270 -57Q272 -49 274 -43T279 -29Q227 -58 184 -90T110 -159T60 -234T40 -313Q39 -337 47 -354T78 -371Q102 -371 129 -337T183 -253T233 -150T270 -57Z" />
<glyph unicode="{" glyph-name="braceleft" horiz-adv-x="249" d="M111 -121Q93 -121 70 -110T25 -80T-9 -33T-20 28Q-17 71 -2 103T30 164T61 219T79 280Q80 299 75 316Q70 330 60 342T28 358Q27 364 27 369T29 379Q30 384 31 389Q34 400 38 409T44 420Q74 415
91 430T119 468Q130 493 134 527Q137 561 135 581T130 619T128 658T137 714Q146 752 170 779T225 824T287 847T341 850L305 750Q287 751 270 746T238 729T213 701T200 665Q197 647 198 632T200 601T203 570T203 534Q199 476 173 435T101 378Q119 364 131 337T141
284Q138 240 125 209T98 155T71 112T57 73Q56 60 58 46T69 19T94 -5T136 -25L111 -121V-121Z" />
<glyph unicode="|" glyph-name="bar" horiz-adv-x="260" d="M219 749Q242 754 251 753T260 746Q258 739 250 711T230 641T204 548T176 444T151 340T132 247Q123 200 115 155Q108 117 102 75T92 3Q78 -5 67 -8T46 -14Q35 -16 27 -16Q7 -16 3 -12T1 7Q4 19 16 70Q21
92 29 124T48 204T74 313T109 457L166 702Q171 722 181 731T219 749Z" />
<glyph unicode="}" glyph-name="braceright" horiz-adv-x="249" d="M128 850Q146 850 169 839T214 809T248 762T259 701Q256 658 241 626T209 565T178 510T160 450Q159 430 164 413Q169 399 179 386T211 371Q211 365 211 360T210 349Q209 344 208 340Q205 329
201 320T195 309Q165 314 147 299T119 261Q108 235 104 202Q101 168 103 148T108 110T110 71T101 15Q92 -23 68 -50T13 -95T-48 -118T-102 -121L-67 -20Q-49 -21 -31 -16T1 1T26 28T39 65Q42 83 41 98T39 128T36 159T36 196Q40 253 66 294T137 351Q128 358 121
369T108 392T99 418T97 445Q100 489 113 520T140 574T167 617T181 656Q182 669 180 683T169 710T144 734T102 754L128 850V850Z" />
<glyph unicode="~" glyph-name="asciitilde" horiz-adv-x="337" d="M357 386Q357 371 348 356T321 331T282 315T232 314Q203 318 182 325T142 338T107 345T70 340Q58 336 47 331Q37 326 26 320T7 307Q-7 310 -13 318Q-17 322 -20 327Q-24 334 -27 342Q-29 348
-30 355T-28 369Q-13 388 9 397T51 411Q75 415 101 415Q134 413 154 407T191 395T226 384T271 384Q280 386 291 391Q300 396 311 404T335 426Q345 420 351 409T357 386Z" />
<glyph unicode="&#xa0;" glyph-name="uni00A0" horiz-adv-x="287" />
<glyph unicode="&#xa1;" glyph-name="exclamdown" horiz-adv-x="255" d="M40 -22Q30 -24 19 -24Q10 -24 0 -22T-20 -13L133 550Q136 561 151 572T182 589T211 596T221 586Q217 570 203 508Q197 481 188 442T167 346T138 216T99 46Q97 39 96 32Q95 26 95 20T98
12Q90 2 80 -4T61 -14Q50 -18 40 -22ZM194 653Q169 649 153 658T139 689Q140 702 149 713T172 734T201 748T227 753Q247 753 262 744T275 715Q273 689 248 674T194 653Z" />
<glyph unicode="&#xa2;" glyph-name="cent" horiz-adv-x="330" d="M272 645Q285 642 299 634T323 610T338 569T339 508Q334 467 314 439T256 410Q236 410 226 430T218 479Q221 505 241 528T288 557Q286 574 278 589T252 605Q234 605 213 591T171 553T131 495T96
423T71 344T62 261Q62 243 66 222T78 183T100 153T134 141Q164 141 192 159T244 210Q253 222 260 224T270 223T274 211T267 194Q247 162 218 133T146 93L114 1Q102 -6 90 -8Q84 -9 78 -9Q72 -10 68 -8Q58 -6 59 3Q67 24 71 40T79 69Q83 83 84 94Q61 103 43 123T13
174T-3 244T-2 332Q3 377 21 426T69 520T136 598T217 642Q218 648 221 659T227 683T234 708T240 728Q242 732 250 736T270 738Q296 735 292 722Q289 711 283 687T272 645Z" />
<glyph unicode="&#xa3;" glyph-name="sterling" horiz-adv-x="326" d="M279 696Q302 694 318 684T345 657T359 620T361 581Q359 558 350 538T328 504T296 481T259 472Q244 472 235 479T221 495T215 515T213 532Q218 528 232 528T261 535T289 560T305 607Q307 630
295 640T267 651Q256 651 241 647T210 630T182 597T160 543Q150 506 143 464T123 366H159Q175 366 195 367T236 371Q232 355 229 348Q226 343 224 337Q216 323 207 315T172 306Q163 306 146 306T109 309Q102 285 93 258T73 205T48 154T16 110Q36 118 68 126T146
137Q218 142 243 134T262 105Q260 97 256 89Q253 82 249 74T240 59Q236 66 228 69T210 75Q199 77 188 77Q172 77 148 76T96 71T35 64T-28 55Q-32 56 -35 60T-41 69Q-44 74 -46 81Q-48 87 -49 93Q-50 98 -50 103T-49 114Q-42 116 -35 124T-22 142Q-15 153 -9 165Q4
191 17 230T43 316Q28 318 17 321T1 328Q-6 333 -7 339T-8 352T-3 364T2 374Q12 373 21 373T39 371Q48 370 57 370Q68 412 77 454T95 534Q102 568 117 598T154 651T208 686T279 696Z" />
<glyph unicode="&#xa4;" glyph-name="currency" horiz-adv-x="356" d="M329 537Q337 540 342 539T352 536Q356 533 359 529Q362 525 364 520Q366 515 366 510T364 499L288 431Q291 418 290 404Q288 376 279 353T257 310L306 238Q308 234 308 221T292 197Q287 194
282 193Q277 192 272 193T261 202L215 268Q185 249 153 249Q120 249 99 264L36 208Q23 197 12 201T-4 214Q-10 227 -8 237T2 252Q16 264 35 281T72 312Q71 319 71 325T71 338Q73 355 81 380T105 430L59 498Q53 507 55 518T65 538T83 547T104 536L145 475Q160 486
176 492T212 499Q227 499 239 493T262 478L329 537ZM241 398Q243 414 235 430T207 447Q191 447 177 438T151 414T131 381T122 343Q120 326 129 313T154 299Q185 299 210 326T241 398Z" />
<glyph unicode="&#xa5;" glyph-name="yen" horiz-adv-x="334" d="M360 665Q370 668 380 670T397 672T405 666T400 648Q394 636 380 612T349 560T314 503T280 455Q262 433 241 410T203 368Q201 359 198 349T189 325H247Q261 324 265 319T265 295Q260 275 255 272T242
269Q234 269 217 270T175 274Q173 266 171 257T165 237Q195 238 211 236T233 231Q240 228 241 221T236 198Q234 193 230 189Q227 185 224 182T216 177Q208 179 198 180T177 183Q166 184 153 185Q146 160 142 140Q138 123 135 107T132 87Q124 78 117 73T102 66Q94
63 86 63Q78 63 72 65Q67 67 62 69T57 77Q63 97 68 116T78 150Q82 168 87 184Q58 182 42 181T14 178Q8 177 6 183T5 198T10 214T19 222Q27 224 48 227T100 233Q101 239 102 243T104 253L110 274Q84 272 62 270T32 266Q26 265 25 272T27 287T36 304T51 313Q64 315
82 318T121 323Q124 338 127 351T133 375Q123 397 109 433T88 513Q82 538 78 564Q74 585 71 609T67 651Q75 656 82 660T95 666Q101 669 106 670Q111 671 116 673Q121 674 126 675T137 677Q135 657 136 633T140 588Q143 563 146 538Q153 499 161 468T175 417Q191
433 213 458T256 513Q268 530 279 550Q289 567 300 590T322 640Q326 646 332 650T345 658Q352 662 360 665Z" />
<glyph unicode="&#xa6;" glyph-name="brokenbar" horiz-adv-x="260" d="M219 749Q242 754 251 753T260 746Q258 738 250 709T229 636T203 540T175 433Q173 430 168 426Q163 423 155 421T132 418Q119 417 113 420T104 427Q101 431 102 436L108 457L166 702Q171
722 181 731T219 749ZM114 331Q128 330 134 327T143 320Q146 316 145 310Q141 293 138 277T132 247Q123 200 115 155Q108 117 102 75T92 3Q78 -5 67 -8T46 -14Q35 -16 27 -16Q7 -16 3 -12T1 7Q2 11 9 41T26 115T49 211T74 311Q76 318 81 322Q86 326 93 329T114
331Z" />
<glyph unicode="&#xa7;" glyph-name="section" horiz-adv-x="305" d="M95 -24Q73 -24 51 -19T10 -1T-19 28T-31 70Q-31 94 -24 109T-4 134T21 145T47 147Q56 146 63 144Q69 142 74 140T82 133Q59 125 47 102T34 56Q34 40 44 23T79 5Q96 5 112 14T140 39T159 72T166
109Q166 144 147 165T103 207Q87 220 70 233T39 261T16 294T7 337Q7 369 21 393T58 435T109 463T168 476Q163 481 158 486T146 496Q132 508 119 520T96 547T79 577T72 614Q72 635 85 660T123 706T181 742T258 757Q279 757 297 749T328 729T348 700T356 669Q356
621 337 600T294 579Q283 579 273 580Q265 581 257 582T245 588Q262 603 270 619T284 649Q289 665 290 680Q290 703 281 718T254 733Q232 733 212 720T177 687T152 646T143 610Q143 590 152 572T174 538T199 512T220 494Q228 487 239 476T261 448T279 412T287 367Q287
335 272 312T235 273T189 246T146 231Q148 229 150 228Q162 217 177 205T206 179T229 148T238 108Q238 81 226 57T193 15T148 -13T95 -24ZM113 263Q129 266 147 273T182 292T209 324T220 371Q220 395 214 413T198 444Q163 441 140 429T104 401T84 368T78 335Q78
315 88 298T113 263Z" />
<glyph unicode="&#xa8;" glyph-name="dieresis" horiz-adv-x="581" d="M412 592Q391 592 383 600T374 622Q374 631 380 640T395 656T417 667T443 671Q468 671 477 663T487 640Q487 629 480 620T461 605T437 596T412 592ZM329 646Q329 627 307 609T247 590Q228
590 222 598T216 616Q216 635 234 654T287 673Q303 673 316 668T329 646Z" />
<glyph unicode="&#xa9;" glyph-name="copyright" horiz-adv-x="467" d="M294 746Q345 746 384 728T450 677T490 600T503 504Q502 451 479 402T419 314T334 252T234 228Q183 228 143 245T75 294T33 366T20 455Q21 506 43 557T102 651T188 719T294 746ZM447 530Q448
563 438 594T408 651T362 691T306 707Q270 707 231 689T159 637T104 553T81 439Q80 403 90 372T120 318T171 282T243 269Q279 269 315 289T380 345T427 428T447 530ZM316 650Q331 650 343 641T362 618T373 586T377 553Q377 547 372 542T359 532T343 525T331 522Q326
522 319 526T307 538T303 552T316 566Q327 570 329 588Q329 596 323 599T308 603Q294 603 276 587T241 546T213 492T201 438Q200 417 205 404T218 383T234 374T250 371Q273 371 299 390T338 434Q345 447 351 444T353 428Q350 419 339 402T312 368T276 339T236 326Q194
326 170 361T147 451Q148 483 162 518T200 582T254 631T316 650Z" />
<glyph unicode="&#xaa;" glyph-name="ordfeminine" horiz-adv-x="382" d="M262 -9Q235 -8 193 -8T109 -10Q81 -11 53 -14Q29 -16 0 -20T-56 -32Q-57 -24 -56 -17T-53 -2Q-51 6 -49 13Q-45 23 -38 34T-25 48Q-20 50 -5 52T31 55T78 58T130 59Q181 60 215 59T282
54Q296 52 298 46T294 20Q288 3 282 -3T262 -9ZM48 106Q35 106 21 114T-2 141T-15 188T-9 257Q4 311 31 355T90 431T153 479T205 493Q230 490 244 479Q256 470 260 453T245 407Q259 410 266 411T278 412Q282 412 285 411Q286 409 286 403T284 382T276 342T262 275Q260
267 259 261T256 248T253 233T249 211Q247 203 247 193T249 175T257 161T273 155Q286 155 304 167T340 196T373 229T396 256Q404 266 411 267T422 264T422 248T407 220Q381 187 357 163T306 123Q288 110 263 108T220 118Q213 124 208 135Q203 145 200 161T197 201Q175
165 150 146T101 118Q75 107 48 106ZM98 346Q84 323 77 297T66 248T65 208T73 184Q87 170 107 177T145 199T177 232T193 257Q197 275 203 299T214 345T221 382T219 396Q214 395 209 393Q198 389 184 388Q191 402 192 411T193 425Q192 431 188 435Q179 443 155 423T98
346Z" />
<glyph unicode="&#xab;" glyph-name="guillemotleft" horiz-adv-x="355" d="M196 389Q193 384 178 365T142 319T95 258T44 191Q46 184 57 161Q65 141 82 102T131 -7Q127 -10 123 -11T113 -13Q108 -14 101 -14Q88 -14 84 -12T78 -3Q78 -2 69 12T46 48T18 93T-11
139T-32 175T-41 191Q-39 195 -21 215Q-6 232 26 267T118 368Q129 380 138 386T170 396Q190 399 194 395T196 389ZM318 396Q337 399 341 395T344 389Q341 384 327 365T291 319T244 258T193 191Q195 184 205 161Q213 141 229 102T274 -7Q270 -10 266 -11T256 -13Q251
-14 245 -14Q231 -14 227 -12T221 -3Q221 -2 212 12T191 48T164 93T137 139T116 175T108 191Q110 195 128 215Q143 232 174 267T265 368Q276 380 286 386T318 396Z" />
<glyph unicode="&#xac;" glyph-name="logicalnot" horiz-adv-x="525" d="M480 400Q493 399 499 392T505 372T501 342T492 304Q482 264 475 240T460 203T445 183T425 173Q416 171 408 169Q400 167 393 167T377 169Q387 191 397 218Q405 241 415 272T433 338Q412
338 385 339T330 341T275 342T224 340Q187 340 147 337Q113 335 73 331T-5 319Q-6 326 -5 334T-1 349Q2 357 5 364Q10 373 20 384T39 398Q45 400 66 402T117 406T182 409T253 410Q324 410 380 407T480 400Z" />
<glyph unicode="&#xad;" glyph-name="sfthyphen" horiz-adv-x="362" d="M310 289Q282 290 239 290T154 288Q126 287 97 284Q72 282 42 278T-15 266Q-16 274 -15 281T-12 296Q-10 304 -8 311Q-4 321 3 332T17 346Q22 348 37 350T74 353T122 356T175 357Q228 358
263 357T330 352Q344 350 346 343T343 318Q337 301 330 295T310 289Z" />
<glyph unicode="&#xae;" glyph-name="registered" horiz-adv-x="467" d="M294 746Q345 746 384 728T450 677T490 600T503 504Q502 451 479 402T419 314T334 252T234 228Q183 228 143 245T75 294T33 366T20 455Q21 506 43 557T102 651T188 719T294 746ZM447 530Q448
563 438 594T408 651T362 691T306 707Q270 707 231 689T159 637T104 553T81 439Q80 403 90 372T120 318T171 282T243 269Q279 269 315 289T380 345T427 428T447 530ZM302 654Q323 654 337 647T360 628Q368 615 371 603T374 579V570Q372 550 360 528T328 487Q319
480 310 474T290 463Q297 453 302 441Q312 421 317 408T325 383Q330 370 339 369Q343 369 347 370Q355 372 361 379Q363 370 361 363T356 350Q352 344 348 339Q343 333 336 330T322 327Q317 327 314 327T307 329Q301 332 296 339Q291 345 288 354T280 379Q275 393
271 407T259 436Q257 440 255 443T251 450Q246 449 241 448T229 446L226 434Q221 414 216 393T206 358Q204 354 202 350T195 342Q184 336 172 336Q164 336 157 340T145 349L138 356L146 361Q148 362 148 363T151 365Q152 366 153 367T156 371Q159 376 163 387T173
418Q175 425 177 434T182 455Q172 463 172 476V478Q173 493 186 500Q191 504 197 505Q203 528 209 550T220 590Q207 579 206 575H205L200 569L194 574Q194 575 190 579T182 590Q180 596 180 602Q180 607 183 612Q186 616 193 622Q202 628 229 641T302 654ZM325
582Q325 594 322 601T313 612Q301 622 287 622Q279 622 267 617Q267 617 268 616V614L267 612Q266 606 264 599L256 567Q251 550 247 532T241 502Q244 500 247 499T254 495Q259 493 261 490Q270 496 278 500Q295 511 308 529T325 574V582Z" />
<glyph unicode="&#xaf;" glyph-name="overscore" horiz-adv-x="581" d="M461 664Q472 663 473 656T470 630Q465 613 461 606T445 600Q425 602 403 602T348 602Q293 600 267 597T238 594Q234 594 231 600T232 626Q235 635 240 646T251 659Q258 664 289 666T359
669Q379 669 393 669T418 669T439 667T461 664Z" />
<glyph unicode="&#xb0;" glyph-name="degree" horiz-adv-x="148" d="M138 687Q173 687 186 670T200 635Q200 624 195 612T181 588T159 570T127 562Q106 562 94 567T74 581T64 598T61 617Q61 630 67 642T84 665T109 681T138 687ZM129 598Q142 598 149 609T156 629Q156
637 152 644T133 651Q122 651 114 642T105 622Q105 614 110 606T129 598Z" />
<glyph unicode="&#xb2;" glyph-name="twosuperior" horiz-adv-x="275" d="M276 751Q291 741 299 727Q307 713 309 699T311 673V659Q309 619 286 579T232 501Q201 464 169 434T114 383Q103 375 97 367T85 350Q101 355 122 360T168 366Q194 366 210 363T236 356Q245
353 249 350T254 345L255 344V343Q255 342 255 338T256 327Q256 323 256 318T254 308Q251 295 246 287T240 276L229 260L226 280V281Q225 282 224 283T218 287Q210 291 193 294T143 298Q106 298 92 293T75 286Q75 286 74 285H73Q73 284 72 284V282L71 283Q63 279
55 279Q45 279 37 286Q28 292 25 306Q21 318 19 324T14 332Q14 333 13 333L10 337L12 341Q22 361 32 375T56 404Q70 418 86 432T122 464Q140 479 160 500T198 548Q215 575 227 606T241 673V678Q241 702 231 712Q221 720 209 720Q203 720 194 714Q189 711 184 706T174
696Q165 685 159 670T151 638V636Q151 630 154 627V625H155L165 620L157 612Q156 611 154 610Q152 609 150 608T146 605Q142 603 137 601T124 599Q120 599 115 599T104 601Q91 604 84 616Q79 626 79 637Q79 638 79 638T80 640Q80 651 90 673Q95 683 102 692T120
713Q139 732 168 746T238 760Q250 760 259 758T276 751Z" />
<glyph unicode="&#xb3;" glyph-name="threesuperior" horiz-adv-x="269" d="M281 737Q310 713 310 669V665Q308 613 264 562Q255 551 244 541T218 521Q225 519 232 516T247 508Q259 499 266 483T274 443V439Q273 415 263 387T233 334Q214 309 187 293T127 276H126Q94
276 74 285T41 309Q30 324 25 339T20 365V367Q20 380 31 387Q39 394 51 397Q62 400 73 400T92 401H102L99 392Q98 390 97 385T96 373Q96 366 97 358T104 345Q109 339 116 336T136 332Q149 331 163 341Q177 352 187 370Q198 387 204 407T211 446V449Q211 465 204
476Q196 485 182 485Q167 486 153 480T134 472H133L126 468L108 517L115 519Q135 527 157 541T200 575Q219 595 231 620T246 676V677Q246 691 237 702Q227 712 210 712Q201 712 189 708T167 694Q156 685 150 674T142 647V645Q142 631 150 627Q153 624 157 624H160H157H179L161
610Q160 608 157 607Q155 605 152 605T146 602Q140 599 132 597T116 593Q97 593 85 605Q70 619 71 645V648Q71 663 79 682T104 718Q121 735 149 747T215 759Q233 759 250 754T281 737Z" />
<glyph unicode="&#xb4;" glyph-name="acute" horiz-adv-x="581" d="M401 696Q410 703 421 695T437 671Q444 650 438 640T420 621Q414 616 398 607T362 589T323 572T294 563Q283 562 277 565T268 574T263 585T262 597Q340 651 371 674Q389 687 401 696Z" />
<glyph unicode="&#xb5;" glyph-name="mu" horiz-adv-x="464" d="M437 180Q444 189 450 190T459 189T464 180T461 164Q427 85 384 37T279 -11Q253 -11 235 11T206 65Q184 31 155 13T91 -5Q68 -5 51 0T19 13Q11 -21 3 -50T-16 -119Q-27 -154 -41 -171T-72 -194T-104
-199T-133 -197Q-125 -189 -118 -173T-104 -140Q-97 -121 -90 -99Q-85 -81 -78 -52T-61 12T-43 83T-26 154T-10 216T3 261Q9 282 11 288Q19 315 32 334T71 361Q80 363 90 365Q98 366 106 366T123 362Q97 299 84 257T62 188Q53 157 51 139Q46 97 58 76T109 54Q132
54 154 72T195 119Q194 127 194 134T193 148Q193 178 198 207T210 260T224 304T238 335Q248 358 256 363T284 369Q300 369 305 368Q315 365 315 356Q315 342 313 312T303 250Q289 199 279 177T258 141Q260 87 272 67T301 47Q329 47 352 65T393 107T421 152T437
180Z" />
<glyph unicode="&#xb6;" glyph-name="paragraph" horiz-adv-x="421" d="M198 355Q169 359 138 369T82 400T42 450T32 526Q36 580 60 615T115 671T181 700T239 709H283L289 733Q294 738 300 742T312 748Q319 751 327 752Q334 753 339 753Q344 753 348 751T354 744Q352
739 351 733T348 722Q346 716 345 709L396 708Q396 710 397 713Q398 715 398 717T399 721Q404 732 414 737T436 745Q449 748 465 749Q463 743 462 736T459 722Q457 715 456 708H513Q511 677 489 660T439 637Q433 608 426 576T411 511T396 444T382 382Q374 346 366
306T349 227T332 151T315 85T301 37T289 12Q282 2 270 -3T245 -11Q230 -14 214 -14Q227 2 238 29T258 85Q268 117 276 153Q287 200 297 248T316 343T334 433T351 514Q358 545 365 576T379 634L327 636Q315 587 300 521T264 374Q254 330 241 273Q230 224 214 156T177
1Q163 -7 148 -11T118 -17Q102 -20 87 -19Q101 4 111 31T129 82Q138 109 144 135Q149 154 155 181T169 238T183 298T198 355Z" />
<glyph unicode="&#xb7;" glyph-name="middot" horiz-adv-x="173" d="M92 393Q118 397 133 389T147 357Q146 344 137 333T114 313T85 299T59 294Q39 294 24 302T10 332Q11 345 18 355T37 373T63 386T92 393Z" />
<glyph unicode="&#xb8;" glyph-name="cedilla" horiz-adv-x="581" d="M340 22Q396 24 421 6T442 -45Q440 -62 427 -77T393 -105T345 -127T288 -139Q275 -141 268 -137T261 -127T266 -115T286 -106Q319 -98 343 -85T370 -53Q372 -36 352 -26T298 -19Q286 -20 279
-16T274 0Q275 4 279 16T290 43T301 68T307 82Q310 87 320 91T346 97Q357 97 367 94T375 87Q373 83 369 75Q365 68 358 56T340 22Z" />
<glyph unicode="&#xb9;" glyph-name="onesuperior" horiz-adv-x="154" d="M177 748Q181 744 184 741T190 734Q195 729 195 723Q195 721 194 720L126 446Q121 423 114 394T106 335Q106 315 112 299L113 293L108 291Q106 290 95 287T62 283Q47 283 38 292Q31 302
31 315Q31 328 36 343Q42 364 61 427T101 603Q105 620 107 633T112 657Q104 663 97 669T84 684L82 688L84 692Q86 694 87 696Q88 697 89 698T92 702Q96 707 100 711T109 720Q119 729 129 738T150 752Q156 755 162 755Q164 755 170 753Q172 751 173 751T177 748Z"
/>
<glyph unicode="&#xba;" glyph-name="ordmasculine" horiz-adv-x="327" d="M224 54Q237 53 239 46T236 22Q230 5 225 -2T208 -9Q185 -7 150 -8T78 -10Q55 -11 31 -14Q11 -16 -13 -20T-61 -32Q-62 -24 -61 -17T-58 -2Q-56 6 -55 13Q-52 23 -46 34T-34 47Q-31 49
-18 51T13 55T53 58T96 60Q140 60 169 59T224 54ZM362 391Q380 408 386 397T378 367Q373 361 363 350T338 324T303 294T260 266Q252 233 237 203T200 151T152 115T94 101Q58 101 38 116T7 155T-5 206T-8 258Q-8 293 7 338T51 419Q62 450 93 464T158 479Q165 479
167 478Q179 477 196 469T230 445T257 404T269 345Q269 337 269 331T268 316Q294 330 317 350T362 391ZM98 154Q130 154 151 181T185 241Q179 240 173 240T161 240Q126 240 103 259T65 310Q53 274 53 240Q53 224 55 209T62 181T75 162T98 154ZM207 331Q208 348
207 365T201 397T188 421T170 431Q138 431 109 396Q108 391 107 387T106 378Q106 364 107 349T116 321T139 300T182 292Q187 292 191 292T201 293Q207 317 207 331Z" />
<glyph unicode="&#xbb;" glyph-name="guillemotright" horiz-adv-x="355" d="M77 -6Q80 -2 94 17T130 63T178 124T229 191Q227 197 216 221Q207 241 190 280T141 390Q145 392 150 393T160 395Q165 396 171 396Q184 396 189 394T196 386Q196 385 205 371T227 335T256
289T284 243T305 207T314 191Q312 187 294 167Q279 150 247 114T156 14Q145 3 135 -3T102 -14Q84 -17 80 -13T77 -6ZM-45 -14Q-65 -17 -69 -13T-71 -6Q-68 -2 -53 17T-17 63T29 124T81 191Q79 197 69 221Q61 241 44 280T-2 390Q2 392 7 393T17 395Q22 396 29 396Q42
396 46 394T52 386Q52 385 61 371T82 335T109 289T136 243T157 207T166 191Q164 187 146 167Q131 150 99 114T7 14Q-4 3 -13 -3T-45 -14Z" />
<glyph unicode="&#xbc;" glyph-name="onequarter" horiz-adv-x="593" d="M543 456Q549 452 550 447Q551 444 551 439Q551 432 548 423Q546 414 541 394T530 347T517 290T504 231Q506 230 508 230T512 229Q517 227 522 224T530 216Q536 208 536 200Q536 191 532
184Q530 179 528 174T524 164Q521 159 520 154L514 140L507 153V154Q507 154 505 156Q503 158 502 160T497 164Q495 165 495 165T492 167Q484 120 480 81T475 16V7V3L473 1Q472 1 469 -2T459 -8Q445 -17 425 -17Q409 -17 400 -6Q394 3 394 17V22Q395 34 398 46T403
70Q408 90 415 117T430 175Q402 173 373 169T310 157L307 156L304 158Q303 159 296 166T281 188Q274 201 274 213Q272 227 287 238Q292 242 300 251T323 274Q335 288 350 305T383 343Q409 372 424 391T446 422Q452 429 452 432L453 436L456 437Q456 437 463 439T479
445T499 452T519 457Q524 458 531 458Q539 458 543 456ZM464 304Q469 326 473 343T482 375Q468 358 451 338T418 298Q401 278 384 259T352 222V221Q357 222 369 222Q394 224 412 226T444 230Q450 250 454 269T464 304ZM129 446Q124 423 117 394T110 335Q110 326
111 317T114 299L116 293L111 291Q110 290 99 287T66 283H65Q48 283 41 292Q34 302 34 315Q34 328 39 343Q45 364 64 427T104 603Q108 620 110 633T115 657Q107 663 100 669T87 684L84 688L86 692L90 696Q91 697 92 698T95 702Q100 710 112 720Q122 729 132 738T153
752Q159 755 164 755Q167 755 169 755T173 753Q174 752 180 748Q184 744 187 741T193 734Q197 728 197 723V720L129 446ZM527 749Q552 754 560 753T567 746Q561 738 540 710T489 641T421 548T347 444T276 340T215 247Q185 200 157 155Q133 117 108 75T66 3Q49 -5
36 -8T13 -14Q2 -16 -8 -16Q-28 -16 -30 -11T-24 7Q-16 19 19 70Q34 92 56 124T111 204T186 313T285 457L454 702Q467 722 481 731T527 749Z" />
<glyph unicode="&#xbd;" glyph-name="onehalf" horiz-adv-x="618" d="M134 446Q128 423 122 394T115 335Q115 326 116 317T119 299L121 293L116 291Q115 290 104 287T71 283H70Q53 283 46 292Q39 302 39 315Q39 328 44 343Q50 364 69 427T110 603Q113 620 115
633T120 657Q112 663 105 669T92 684L89 688L91 692L95 696Q96 697 97 698T100 702Q103 707 107 711T117 720Q127 729 137 738T158 752Q164 755 169 755Q172 755 174 755T178 753Q179 752 185 748Q189 744 192 741T198 734Q202 728 202 723V720L134 446ZM558 454Q566
449 572 443T581 430Q589 416 591 402T593 376V362Q591 322 568 282T514 204Q484 167 451 137T395 86Q385 78 379 70T367 53Q383 58 404 63T451 69Q476 69 492 66T517 59Q527 56 531 53T536 48L537 47V46Q537 45 537 41T538 30Q538 26 538 21T536 11Q532 -2 527
-10T522 -20L511 -37L509 -17Q508 -17 508 -16Q507 -15 506 -14T500 -10Q492 -6 475 -3T425 1Q388 1 373 -4T356 -11L355 -12H354Q354 -13 353 -13V-15L352 -14Q344 -18 338 -18Q328 -18 318 -11Q309 -5 306 9Q303 21 301 27T296 35Q296 36 295 36L292 40L294 44Q303
64 314 79T338 108Q352 122 367 136T403 167Q422 182 442 203T479 251Q497 278 508 309T522 376V381Q522 404 513 415Q505 423 490 423Q484 423 475 417Q464 410 456 399Q446 388 440 373T432 341V339Q432 333 435 330V328H436L446 323L438 315Q437 314 435 313Q433
312 432 311T428 308Q424 306 419 304T406 302Q401 302 396 302T386 304Q373 308 366 319Q361 326 361 340V343Q361 350 364 358T372 376Q383 397 401 416Q421 435 450 449T519 462Q542 462 558 454ZM532 749Q557 754 565 753T572 746Q566 738 546 710T495 641T427
548T353 444T281 340T220 247Q190 200 162 155Q138 117 113 75T71 3Q54 -5 41 -8T18 -14Q7 -16 -3 -16Q-23 -16 -25 -11T-18 7Q-10 19 25 70Q40 92 62 124T117 204T191 313T290 457L459 702Q472 722 487 731T532 749Z" />
<glyph unicode="&#xbe;" glyph-name="threequarters" horiz-adv-x="686" d="M126 276Q94 276 74 285T41 309Q30 324 25 339T20 365V367Q20 380 31 387Q39 394 51 397Q62 400 73 400T92 401H102L99 392Q98 390 97 385T96 373Q96 366 97 358T104 345Q109 339 116
336T136 332Q149 331 163 341Q177 352 187 370Q198 387 204 407T211 446V449Q211 465 204 476Q196 485 182 485Q167 486 153 480T134 472H133L126 468L108 517L115 519Q135 527 157 541T200 575Q219 595 231 620T246 676V677Q246 691 237 702Q227 712 210 712Q201
712 189 708T167 694Q156 685 150 674T142 647V645Q142 631 150 627Q153 624 157 624H160H157H179L161 610Q160 608 157 607Q155 605 152 605T146 602Q140 599 132 597T116 593Q97 593 85 605Q70 619 71 645V648Q71 663 79 682T104 718Q121 735 149 747T215 759Q233
759 250 754T281 737Q310 713 310 669V665Q308 613 264 562Q255 551 244 541T218 521Q225 519 232 516T247 508Q259 499 266 483T274 443V439Q273 415 263 387T233 334Q214 309 187 293T127 276H126ZM635 456Q642 453 643 447Q644 444 644 439Q644 432 641 423Q639
414 634 394T622 347T609 290T596 231Q598 230 600 230T604 229Q615 225 624 216Q628 209 628 200Q628 191 625 184Q623 179 621 174T617 164L612 154L606 140L600 153H599V154L597 156Q595 159 589 164Q588 165 587 165T585 167Q577 120 572 81T567 16Q567 10
568 7V3L565 1Q563 0 561 -2Q559 -4 551 -8Q537 -17 518 -17H517Q502 -17 494 -6Q489 -1 488 5T487 17V22Q488 34 491 46T496 70Q501 90 507 117T522 175Q495 173 466 169T402 157L399 156L396 158Q396 159 389 166T374 188Q371 195 369 201T367 213Q367 227 379
238Q388 246 415 274Q428 288 443 305T475 343Q501 372 516 391T540 422Q544 429 544 432L545 436L549 437Q560 441 571 445Q581 448 592 451T612 457Q615 458 618 458T624 458Q632 458 635 456ZM556 304Q562 326 566 343T574 375Q560 358 543 338T510 298Q493
278 476 259T445 222Q445 222 444 221Q449 222 453 222T462 222Q487 224 505 226T537 230Q542 250 547 269T556 304ZM620 749Q645 754 654 753T659 746Q654 738 633 710T582 641T514 548T440 444T369 340T308 247Q277 200 249 155Q225 117 200 75T158 3Q142 -5
129 -8T105 -14Q94 -16 84 -16Q64 -16 62 -11T70 7Q78 19 113 70Q128 92 150 124T205 204T279 313T378 457L546 702Q559 722 574 731T620 749Z" />
<glyph unicode="&#xbf;" glyph-name="questiondown" horiz-adv-x="423" d="M128 -30Q103 -30 70 -23T8 2T-38 50T-50 127Q-44 176 -25 216T21 287T79 342T142 382T202 408T251 420L275 523Q279 540 287 556T308 585T341 603T388 609L337 408Q333 391 320 380T273
361Q229 353 184 334T103 273Q94 262 83 246T63 210T46 169T36 127Q33 107 37 90T53 59T86 38T141 30Q167 30 190 38T230 59T258 90T271 125Q272 135 271 146Q270 154 267 163T256 180Q301 192 323 183T355 158Q366 140 364 113Q359 75 331 48T267 4T192 -22T128
-30ZM352 655Q326 655 308 666T292 697Q293 707 300 718T319 738T345 752T377 758Q404 758 422 747T438 716Q435 694 415 675T352 655Z" />
<glyph unicode="&#xc0;" glyph-name="Agrave" horiz-adv-x="566" d="M433 753Q468 753 490 734T510 663Q509 646 502 600T485 490T463 355T439 213H460Q470 213 482 214T507 217Q502 205 496 195T484 176Q477 167 470 160Q461 149 449 141T426 127Q419 78 415
40T409 -24Q407 -62 411 -95Q414 -124 423 -154T452 -202L336 -240Q324 -223 319 -195T311 -138Q308 -105 310 -70Q312 -35 321 21T341 145Q321 151 298 155T245 159Q219 159 191 157T134 152Q122 108 110 59Q97 6 87 -31T67 -94T48 -134T27 -156Q15 -162 -3 -167Q-20
-172 -46 -177T-113 -185Q-98 -167 -87 -152T-65 -115T-41 -59T-6 32Q3 55 12 82T33 139Q-3 134 -28 130T-58 124Q-66 123 -71 124Q-84 126 -85 137Q-84 151 -76 156T-50 168Q-42 172 -14 182T56 205Q71 247 85 288T114 368T141 439T165 497Q182 534 208 578T269
662T345 727T433 753ZM422 545Q433 590 437 619T440 664T434 687T420 694Q407 694 388 684T348 656T307 610T270 547Q247 495 218 420T155 227Q175 230 194 232T233 234Q267 234 298 232T355 226Q364 274 373 320T392 409T408 486T422 545ZM411 948Q417 945 432
935T465 911T497 884T518 861Q529 843 521 834T502 818Q459 841 431 856T384 880Q363 891 351 897Q342 902 344 915T357 941Q373 957 385 956T411 948Z" />
<glyph unicode="&#xc1;" glyph-name="Aacute" horiz-adv-x="566" d="M433 753Q468 753 490 734T510 663Q509 646 502 600T485 490T463 355T439 213H460Q470 213 482 214T507 217Q502 205 496 195T484 176Q477 167 470 160Q461 149 449 141T426 127Q419 78 415
40T409 -24Q407 -62 411 -95Q414 -124 423 -154T452 -202L336 -240Q324 -223 319 -195T311 -138Q308 -105 310 -70Q312 -35 321 21T341 145Q321 151 298 155T245 159Q219 159 191 157T134 152Q122 108 110 59Q97 6 87 -31T67 -94T48 -134T27 -156Q15 -162 -3 -167Q-20
-172 -46 -177T-113 -185Q-98 -167 -87 -152T-65 -115T-41 -59T-6 32Q3 55 12 82T33 139Q-3 134 -28 130T-58 124Q-66 123 -71 124Q-84 126 -85 137Q-84 151 -76 156T-50 168Q-42 172 -14 182T56 205Q71 247 85 288T114 368T141 439T165 497Q182 534 208 578T269
662T345 727T433 753ZM422 545Q433 590 437 619T440 664T434 687T420 694Q407 694 388 684T348 656T307 610T270 547Q247 495 218 420T155 227Q175 230 194 232T233 234Q267 234 298 232T355 226Q364 274 373 320T392 409T408 486T422 545ZM483 942Q492 949 503
941T519 917Q526 896 520 886T502 867Q496 862 480 853T444 835T405 818T376 809Q365 808 359 811T350 820T345 831T344 843Q422 897 453 920Q471 933 483 942Z" />
<glyph unicode="&#xc2;" glyph-name="Acircumflex" horiz-adv-x="566" d="M433 753Q468 753 490 734T510 663Q509 646 502 600T485 490T463 355T439 213H460Q470 213 482 214T507 217Q502 205 496 195T484 176Q477 167 470 160Q461 149 449 141T426 127Q419 78
415 40T409 -24Q407 -62 411 -95Q414 -124 423 -154T452 -202L336 -240Q324 -223 319 -195T311 -138Q308 -105 310 -70Q312 -35 321 21T341 145Q321 151 298 155T245 159Q219 159 191 157T134 152Q122 108 110 59Q97 6 87 -31T67 -94T48 -134T27 -156Q15 -162 -3
-167Q-20 -172 -46 -177T-113 -185Q-98 -167 -87 -152T-65 -115T-41 -59T-6 32Q3 55 12 82T33 139Q-3 134 -28 130T-58 124Q-66 123 -71 124Q-84 126 -85 137Q-84 151 -76 156T-50 168Q-42 172 -14 182T56 205Q71 247 85 288T114 368T141 439T165 497Q182 534 208
578T269 662T345 727T433 753ZM422 545Q433 590 437 619T440 664T434 687T420 694Q407 694 388 684T348 656T307 610T270 547Q247 495 218 420T155 227Q175 230 194 232T233 234Q267 234 298 232T355 226Q364 274 373 320T392 409T408 486T422 545ZM540 857Q549
842 557 832T578 815Q570 810 560 809T539 808Q528 808 515 810Q506 811 499 814T484 825T470 844T454 875Q454 876 454 876T453 878Q416 848 402 837T386 824Q370 810 354 812T324 813H312Q307 813 301 813T290 811Q295 815 307 825T332 845Q347 856 364 870Q370
875 380 883T400 899T419 913T431 922Q434 925 445 926T468 928T491 927T504 921Q506 918 511 909T521 890T532 870T540 857Z" />
<glyph unicode="&#xc3;" glyph-name="Atilde" horiz-adv-x="566" d="M433 753Q468 753 490 734T510 663Q509 646 502 600T485 490T463 355T439 213H460Q470 213 482 214T507 217Q502 205 496 195T484 176Q477 167 470 160Q461 149 449 141T426 127Q419 78 415
40T409 -24Q407 -62 411 -95Q414 -124 423 -154T452 -202L336 -240Q324 -223 319 -195T311 -138Q308 -105 310 -70Q312 -35 321 21T341 145Q321 151 298 155T245 159Q219 159 191 157T134 152Q122 108 110 59Q97 6 87 -31T67 -94T48 -134T27 -156Q15 -162 -3 -167Q-20
-172 -46 -177T-113 -185Q-98 -167 -87 -152T-65 -115T-41 -59T-6 32Q3 55 12 82T33 139Q-3 134 -28 130T-58 124Q-66 123 -71 124Q-84 126 -85 137Q-84 151 -76 156T-50 168Q-42 172 -14 182T56 205Q71 247 85 288T114 368T141 439T165 497Q182 534 208 578T269
662T345 727T433 753ZM422 545Q433 590 437 619T440 664T434 687T420 694Q407 694 388 684T348 656T307 610T270 547Q247 495 218 420T155 227Q175 230 194 232T233 234Q267 234 298 232T355 226Q364 274 373 320T392 409T408 486T422 545ZM589 902Q606 892 606
869Q606 857 599 845T578 825T546 812T505 811Q482 814 464 820T431 830T402 836T372 832Q363 828 354 824Q346 820 338 816T322 806Q316 807 312 810T305 815Q301 818 300 821Q296 827 294 833Q292 838 292 844T294 855Q306 871 323 879T358 890Q377 894 398 893Q425
892 441 887T472 877T500 868T537 868Q544 869 553 873Q561 877 570 883T589 902Z" />
<glyph unicode="&#xc4;" glyph-name="Adieresis" horiz-adv-x="566" d="M433 753Q468 753 490 734T510 663Q509 646 502 600T485 490T463 355T439 213H460Q470 213 482 214T507 217Q502 205 496 195T484 176Q477 167 470 160Q461 149 449 141T426 127Q419 78 415
40T409 -24Q407 -62 411 -95Q414 -124 423 -154T452 -202L336 -240Q324 -223 319 -195T311 -138Q308 -105 310 -70Q312 -35 321 21T341 145Q321 151 298 155T245 159Q219 159 191 157T134 152Q122 108 110 59Q97 6 87 -31T67 -94T48 -134T27 -156Q15 -162 -3 -167Q-20
-172 -46 -177T-113 -185Q-98 -167 -87 -152T-65 -115T-41 -59T-6 32Q3 55 12 82T33 139Q-3 134 -28 130T-58 124Q-66 123 -71 124Q-84 126 -85 137Q-84 151 -76 156T-50 168Q-42 172 -14 182T56 205Q71 247 85 288T114 368T141 439T165 497Q182 534 208 578T269
662T345 727T433 753ZM422 545Q433 590 437 619T440 664T434 687T420 694Q407 694 388 684T348 656T307 610T270 547Q247 495 218 420T155 227Q175 230 194 232T233 234Q267 234 298 232T355 226Q364 274 373 320T392 409T408 486T422 545ZM525 817Q504 817 496
825T487 847Q487 856 493 865T508 881T530 892T556 896Q581 896 590 888T600 865Q600 854 593 845T574 830T550 821T525 817ZM442 871Q442 852 420 834T360 815Q341 815 335 823T329 841Q329 860 347 879T400 898Q416 898 429 893T442 871Z" />
<glyph unicode="&#xc5;" glyph-name="Aring" horiz-adv-x="566" d="M422 545Q433 590 437 619T440 664T434 687T420 694Q407 694 388 684T348 656T307 610T270 547Q247 495 218 420T155 227Q175 230 194 232T233 234Q267 234 298 232T355 226Q364 274 373 320T392
409T408 486T422 545ZM446 865Q482 865 495 848T508 813Q508 797 498 778T466 748Q488 740 500 721T510 663Q509 646 502 600T485 490T463 355T439 213H460Q470 213 482 214T507 217Q502 205 496 195T484 176Q477 167 470 160Q461 149 449 141T426 127Q419 78 415
40T409 -24Q407 -62 411 -95Q414 -124 423 -154T452 -202L336 -240Q324 -223 319 -195T311 -138Q308 -105 310 -70Q312 -35 321 21T341 145Q321 151 298 155T245 159Q219 159 191 157T134 152Q122 108 110 59Q97 6 87 -31T67 -94T48 -134T27 -156Q15 -162 -3 -167Q-20
-172 -46 -177T-113 -185Q-98 -167 -87 -152T-65 -115T-41 -59T-6 32Q3 55 12 82T33 139Q-3 134 -28 130T-58 124Q-66 123 -71 124Q-84 126 -85 137Q-84 151 -76 156T-50 168Q-42 172 -14 182T56 205Q71 247 85 288T114 368T141 439T165 497Q180 530 203 570T256
646T321 710T397 748Q380 756 375 769T370 796Q370 809 376 821T392 843T417 859T446 865ZM437 776Q451 776 457 787T464 807Q464 815 460 822T441 829Q430 829 422 820T414 800Q414 792 418 784T437 776Z" />
<glyph unicode="&#xc6;" glyph-name="AE" horiz-adv-x="890" d="M761 754Q799 754 826 742T871 711T896 671T905 631Q906 598 897 564T873 503T840 458T806 440Q793 440 779 444Q767 447 751 454T719 475Q744 485 764 503T797 545T818 592T824 639Q823 671 810
688T764 706Q722 706 681 686T607 629T556 542T544 432Q549 387 571 356T613 308Q629 310 642 311T670 313Q686 313 702 307T720 290Q720 282 716 272T704 253T685 238T659 232Q647 232 631 238T596 253Q559 245 528 225T475 176T441 115T430 51Q431 22 439 -7T464
-60T509 -97T577 -112Q606 -112 632 -100T681 -68T722 -26T755 19T779 59T793 85Q796 91 801 94T812 96T820 88T820 70Q812 34 790 -10T734 -94T653 -159T549 -186Q514 -186 483 -178T424 -154Q428 -163 432 -172Q436 -180 441 -188T452 -202L336 -240Q324 -223
319 -195T311 -138Q308 -105 310 -70Q312 -35 321 21T341 145Q321 151 298 155T245 159Q219 159 191 157T134 152Q122 108 110 59Q97 6 87 -31T67 -94T48 -134T27 -156Q15 -162 -3 -167Q-20 -172 -46 -177T-113 -185Q-98 -167 -87 -152T-65 -115T-41 -59T-6 32Q3
55 12 82T33 139Q-3 134 -28 130T-58 124Q-66 123 -71 124Q-84 126 -85 137Q-84 151 -76 156T-50 168Q-42 172 -14 182T56 205Q71 247 85 288T114 368T141 439T165 497Q182 534 208 578T269 662T345 727T433 753Q468 753 490 734T510 663Q510 658 510 653T508 641Q558
695 626 724T761 754ZM422 545Q433 591 437 620T440 665T434 688T420 694Q407 694 388 684T348 656T307 610T270 547Q247 495 218 420T155 227Q175 230 194 232T233 234Q267 234 298 232T355 226Q364 274 373 320T392 409T408 486T422 545ZM443 240Q488 269 540
288Q517 300 497 317T463 356Q458 327 453 298T443 240Z" />
<glyph unicode="&#xc7;" glyph-name="Ccedilla" horiz-adv-x="562" d="M198 -239Q253 -237 279 -255T300 -305Q298 -322 285 -337T251 -365T203 -387T145 -399Q132 -401 126 -397T119 -387T124 -376T143 -367Q176 -359 200 -345T227 -313Q229 -296 210 -286T156
-280Q129 -282 132 -260Q133 -256 137 -245T147 -220T157 -195T164 -179Q125 -168 94 -141T42 -73T9 17T0 123Q2 183 15 253T54 393T114 529T196 645T298 725T421 756Q462 756 490 740T536 696T561 635T567 566Q565 533 558 502T537 447T504 408T459 393Q447 394
436 401Q426 407 416 419T396 454Q423 465 438 492T462 550Q471 584 474 626Q476 667 457 686T414 705Q367 705 315 656T219 524T144 329T108 94Q106 38 115 -1T142 -65T182 -101T226 -112Q261 -112 292 -97T348 -60T392 -15T421 27Q428 40 436 43T450 42T458 28T454
5Q438 -28 415 -61T362 -121T298 -165T225 -186Q222 -194 216 -206T198 -239Z" />
<glyph unicode="&#xc8;" glyph-name="Egrave" horiz-adv-x="536" d="M195 -186Q148 -186 108 -171T37 -129T-12 -66T-31 14Q-32 70 -14 114T35 192T105 249T185 288Q163 300 144 317T109 355T85 399T76 445Q74 515 104 572T183 669T290 732T407 754Q445 754 472
742T516 711T541 671T551 631Q552 598 543 564T519 503T486 458T451 440Q438 440 424 444Q412 447 396 454T364 475Q390 485 410 503T443 545T463 592T470 639Q469 671 455 688T410 706Q368 706 326 686T252 629T201 542T188 432Q193 387 215 356T258 308Q274 310
288 311T314 313Q331 313 348 307T365 290Q365 282 362 272T350 253T331 238T305 232Q293 232 276 238T242 253Q204 245 173 225T121 176T87 115T76 51Q77 22 85 -7T110 -60T154 -97T221 -112Q250 -112 276 -100T326 -68T368 -26T401 19T424 59T438 85Q441 91 446
94T457 96T466 88T466 70Q458 34 436 -10T380 -94T299 -159T195 -186ZM380 938Q386 935 401 925T434 901T466 874T487 851Q498 833 490 824T471 808Q428 831 400 846T353 870Q332 881 320 887Q311 892 313 905T326 931Q342 947 354 946T380 938Z" />
<glyph unicode="&#xc9;" glyph-name="Eacute" horiz-adv-x="536" d="M195 -186Q148 -186 108 -171T37 -129T-12 -66T-31 14Q-32 70 -14 114T35 192T105 249T185 288Q163 300 144 317T109 355T85 399T76 445Q74 515 104 572T183 669T290 732T407 754Q445 754 472
742T516 711T541 671T551 631Q552 598 543 564T519 503T486 458T451 440Q438 440 424 444Q412 447 396 454T364 475Q390 485 410 503T443 545T463 592T470 639Q469 671 455 688T410 706Q368 706 326 686T252 629T201 542T188 432Q193 387 215 356T258 308Q274 310
288 311T314 313Q331 313 348 307T365 290Q365 282 362 272T350 253T331 238T305 232Q293 232 276 238T242 253Q204 245 173 225T121 176T87 115T76 51Q77 22 85 -7T110 -60T154 -97T221 -112Q250 -112 276 -100T326 -68T368 -26T401 19T424 59T438 85Q441 91 446
94T457 96T466 88T466 70Q458 34 436 -10T380 -94T299 -159T195 -186ZM473 942Q482 949 493 941T509 917Q516 896 510 886T492 867Q486 862 470 853T434 835T395 818T366 809Q355 808 349 811T340 820T335 831T334 843Q412 897 443 920Q461 933 473 942Z" />
<glyph unicode="&#xca;" glyph-name="Ecircumflex" horiz-adv-x="536" d="M195 -186Q148 -186 108 -171T37 -129T-12 -66T-31 14Q-32 70 -14 114T35 192T105 249T185 288Q163 300 144 317T109 355T85 399T76 445Q74 515 104 572T183 669T290 732T407 754Q445 754
472 742T516 711T541 671T551 631Q552 598 543 564T519 503T486 458T451 440Q438 440 424 444Q412 447 396 454T364 475Q390 485 410 503T443 545T463 592T470 639Q469 671 455 688T410 706Q368 706 326 686T252 629T201 542T188 432Q193 387 215 356T258 308Q274
310 288 311T314 313Q331 313 348 307T365 290Q365 282 362 272T350 253T331 238T305 232Q293 232 276 238T242 253Q204 245 173 225T121 176T87 115T76 51Q77 22 85 -7T110 -60T154 -97T221 -112Q250 -112 276 -100T326 -68T368 -26T401 19T424 59T438 85Q441
91 446 94T457 96T466 88T466 70Q458 34 436 -10T380 -94T299 -159T195 -186ZM530 868Q539 853 547 843T568 826Q560 821 550 820T529 819Q518 819 505 821Q496 822 489 825T474 836T460 855T444 886Q444 887 444 887T443 889Q406 859 392 848T376 835Q360 821
344 823T314 824H302Q297 824 291 824T280 822Q285 826 297 836T322 856Q337 867 354 881Q360 886 370 894T390 910T409 924T421 933Q424 936 435 937T458 939T481 938T494 932Q496 929 501 920T511 901T522 881T530 868Z" />
<glyph unicode="&#xcb;" glyph-name="Edieresis" horiz-adv-x="536" d="M195 -186Q148 -186 108 -171T37 -129T-12 -66T-31 14Q-32 70 -14 114T35 192T105 249T185 288Q163 300 144 317T109 355T85 399T76 445Q74 515 104 572T183 669T290 732T407 754Q445 754
472 742T516 711T541 671T551 631Q552 598 543 564T519 503T486 458T451 440Q438 440 424 444Q412 447 396 454T364 475Q390 485 410 503T443 545T463 592T470 639Q469 671 455 688T410 706Q368 706 326 686T252 629T201 542T188 432Q193 387 215 356T258 308Q274
310 288 311T314 313Q331 313 348 307T365 290Q365 282 362 272T350 253T331 238T305 232Q293 232 276 238T242 253Q204 245 173 225T121 176T87 115T76 51Q77 22 85 -7T110 -60T154 -97T221 -112Q250 -112 276 -100T326 -68T368 -26T401 19T424 59T438 85Q441
91 446 94T457 96T466 88T466 70Q458 34 436 -10T380 -94T299 -159T195 -186ZM494 817Q473 817 465 825T456 847Q456 856 462 865T477 881T499 892T525 896Q550 896 559 888T569 865Q569 854 562 845T543 830T519 821T494 817ZM411 871Q411 852 389 834T329 815Q310
815 304 823T298 841Q298 860 316 879T369 898Q385 898 398 893T411 871Z" />
<glyph unicode="&#xcc;" glyph-name="Igrave" horiz-adv-x="550" d="M260 253Q241 273 230 302T212 361Q205 394 202 431Q197 503 218 562T275 663T355 728T442 751Q461 751 472 742T490 720T497 693T499 670Q499 638 498 607T493 541T482 466T464 377Q458 350
447 308T421 215Q466 214 493 212T529 208Q536 207 539 201T535 182Q527 170 513 168T484 166Q476 166 455 166T404 164Q383 102 357 40T298 -73T228 -155T147 -187Q85 -187 43 -164T-26 -109T-65 -46T-77 3Q-77 33 -61 64T-11 122T79 171T211 203Q243 207 272
209T327 214Q347 289 367 367T403 511Q409 538 415 569T424 629T428 676T424 697Q421 698 409 690T381 665T350 627T324 578Q306 527 296 478Q288 436 286 389T301 304Q299 290 295 281Q292 276 290 272Q287 269 283 265Q279 262 274 259T260 253ZM248 -26Q259
-3 275 45T309 156Q260 150 210 140T120 112T54 69T28 10Q28 -26 42 -53T77 -98T119 -125T156 -135Q171 -135 184 -124T209 -96T230 -60T248 -26ZM401 938Q407 935 422 925T455 901T487 874T508 851Q519 833 511 824T492 808Q449 831 421 846T374 870Q353 881 341
887Q332 892 334 905T347 931Q363 947 375 946T401 938Z" />
<glyph unicode="&#xcd;" glyph-name="Iacute" horiz-adv-x="550" d="M260 253Q241 273 230 302T212 361Q205 394 202 431Q197 503 218 562T275 663T355 728T442 751Q461 751 472 742T490 720T497 693T499 670Q499 638 498 607T493 541T482 466T464 377Q458 350
447 308T421 215Q466 214 493 212T529 208Q536 207 539 201T535 182Q527 170 513 168T484 166Q476 166 455 166T404 164Q383 102 357 40T298 -73T228 -155T147 -187Q85 -187 43 -164T-26 -109T-65 -46T-77 3Q-77 33 -61 64T-11 122T79 171T211 203Q243 207 272
209T327 214Q347 289 367 367T403 511Q409 538 415 569T424 629T428 676T424 697Q421 698 409 690T381 665T350 627T324 578Q306 527 296 478Q288 436 286 389T301 304Q299 290 295 281Q292 276 290 272Q287 269 283 265Q279 262 274 259T260 253ZM248 -26Q259
-3 275 45T309 156Q260 150 210 140T120 112T54 69T28 10Q28 -26 42 -53T77 -98T119 -125T156 -135Q171 -135 184 -124T209 -96T230 -60T248 -26ZM503 942Q512 949 523 941T539 917Q546 896 540 886T522 867Q516 862 500 853T464 835T425 818T396 809Q385 808 379
811T370 820T365 831T364 843Q442 897 473 920Q491 933 503 942Z" />
<glyph unicode="&#xce;" glyph-name="Icircumflex" horiz-adv-x="550" d="M260 253Q241 273 230 302T212 361Q205 394 202 431Q197 503 218 562T275 663T355 728T442 751Q461 751 472 742T490 720T497 693T499 670Q499 638 498 607T493 541T482 466T464 377Q458
350 447 308T421 215Q466 214 493 212T529 208Q536 207 539 201T535 182Q527 170 513 168T484 166Q476 166 455 166T404 164Q383 102 357 40T298 -73T228 -155T147 -187Q85 -187 43 -164T-26 -109T-65 -46T-77 3Q-77 33 -61 64T-11 122T79 171T211 203Q243 207
272 209T327 214Q347 289 367 367T403 511Q409 538 415 569T424 629T428 676T424 697Q421 698 409 690T381 665T350 627T324 578Q306 527 296 478Q288 436 286 389T301 304Q299 290 295 281Q292 276 290 272Q287 269 283 265Q279 262 274 259T260 253ZM248 -26Q259
-3 275 45T309 156Q260 150 210 140T120 112T54 69T28 10Q28 -26 42 -53T77 -98T119 -125T156 -135Q171 -135 184 -124T209 -96T230 -60T248 -26ZM571 857Q580 842 588 832T609 815Q601 810 591 809T570 808Q559 808 546 810Q537 811 530 814T515 825T501 844T485
875Q485 876 485 876T484 878Q447 848 433 837T417 824Q401 810 385 812T355 813H343Q338 813 332 813T321 811Q326 815 338 825T363 845Q378 856 395 870Q401 875 411 883T431 899T450 913T462 922Q465 925 476 926T499 928T522 927T535 921Q537 918 542 909T552
890T563 870T571 857Z" />
<glyph unicode="&#xcf;" glyph-name="Idieresis" horiz-adv-x="550" d="M260 253Q241 273 230 302T212 361Q205 394 202 431Q197 503 218 562T275 663T355 728T442 751Q461 751 472 742T490 720T497 693T499 670Q499 638 498 607T493 541T482 466T464 377Q458
350 447 308T421 215Q466 214 493 212T529 208Q536 207 539 201T535 182Q527 170 513 168T484 166Q476 166 455 166T404 164Q383 102 357 40T298 -73T228 -155T147 -187Q85 -187 43 -164T-26 -109T-65 -46T-77 3Q-77 33 -61 64T-11 122T79 171T211 203Q243 207
272 209T327 214Q347 289 367 367T403 511Q409 538 415 569T424 629T428 676T424 697Q421 698 409 690T381 665T350 627T324 578Q306 527 296 478Q288 436 286 389T301 304Q299 290 295 281Q292 276 290 272Q287 269 283 265Q279 262 274 259T260 253ZM248 -26Q259
-3 275 45T309 156Q260 150 210 140T120 112T54 69T28 10Q28 -26 42 -53T77 -98T119 -125T156 -135Q171 -135 184 -124T209 -96T230 -60T248 -26ZM525 817Q504 817 496 825T487 847Q487 856 493 865T508 881T530 892T556 896Q581 896 590 888T600 865Q600 854 593
845T574 830T550 821T525 817ZM442 871Q442 852 420 834T360 815Q341 815 335 823T329 841Q329 860 347 879T400 898Q416 898 429 893T442 871Z" />
<glyph unicode="&#xd0;" glyph-name="Eth" horiz-adv-x="648" d="M300 258Q263 260 207 258Q204 246 201 234T195 211Q185 174 172 126Q149 44 108 -98Q122 -122 160 -122Q202 -122 257 -90T365 6T456 166T506 392Q511 462 499 515T463 604T403 658T324 676Q223
676 115 592L110 675Q136 704 169 719T232 743Q266 752 301 753Q365 753 424 729T527 654T594 529T610 352Q606 294 587 232T536 109T461 -5T367 -99T258 -163T138 -187Q119 -186 97 -180Q78 -175 54 -163T4 -129Q-5 -123 -5 -116T-2 -102Q2 -94 10 -86Q19 -79
32 -43T60 44T89 150T114 255Q88 253 50 249T-26 236Q-27 243 -26 251T-23 266Q-21 274 -18 281Q-14 290 -7 301T7 315Q15 318 50 321T129 327Q130 339 132 348Q137 376 143 409Q148 438 154 476T165 562L245 598Q262 606 269 595T269 547Q267 535 263 512T252
459T239 395T223 327Q252 326 275 325T319 322Q334 320 336 313T333 288Q327 271 320 264T300 258Z" />
<glyph unicode="&#xd1;" glyph-name="Ntilde" horiz-adv-x="554" d="M156 472Q151 454 144 421T128 344T110 254T93 160T79 74T72 5Q71 -26 72 -56Q73 -82 75 -110T85 -161Q68 -169 55 -172T34 -178Q24 -180 17 -180Q9 -180 -2 -179T-22 -168T-37 -140T-41 -85Q-40
-61 -34 -26T-18 52T2 140T25 229T45 312T62 379Q71 415 82 463Q101 545 139 709Q146 714 154 718T168 726Q175 730 182 732Q214 744 227 735T243 699Q244 681 247 647T254 571T259 485T261 402Q261 377 262 343T265 271T270 194T277 118T285 52T295 3Q297 -5 299
-12T304 -26Q310 -2 317 31T333 101T350 178T364 253Q369 281 375 325T389 420Q378 424 368 428Q359 432 350 438T335 452Q336 465 337 471T347 472Q353 469 365 465T395 459Q400 487 406 515T420 569Q431 612 445 646T477 705T521 742T579 756Q610 756 629 731T646
642Q644 595 627 558T584 492T529 445T472 418Q463 371 455 324T440 232T425 147T410 76Q403 46 395 11Q388 -19 378 -58T357 -140Q353 -149 347 -155T335 -166Q328 -171 321 -174Q301 -182 287 -177T262 -150Q251 -127 243 -93T225 -19Q216 24 212 74T205 177T201
282T197 380Q192 440 187 487T176 568Q172 548 167 523T156 472ZM492 514Q487 495 484 478Q508 492 529 513T565 559T588 607T598 651Q599 665 596 673T583 682Q578 682 568 677T544 654T518 603T492 514ZM528 882Q545 872 545 849Q545 837 538 825T517 805T485
792T444 791Q421 794 403 800T370 810T341 816T311 812Q302 808 293 804Q285 800 277 796T261 786Q255 787 251 790T244 795Q240 798 239 801Q235 807 233 813Q231 818 231 824T233 835Q245 851 262 859T297 870Q316 874 337 873Q364 872 380 867T411 857T439 848T476
848Q483 849 492 853Q500 857 509 863T528 882Z" />
<glyph unicode="&#xd2;" glyph-name="Ograve" horiz-adv-x="581" d="M524 336Q519 273 504 210T467 87T414 -23T348 -113T270 -173T183 -195Q174 -195 156 -192T116 -176T74 -139T36 -75T13 26T13 171Q25 305 62 414T148 602T249 722T341 765Q357 765 367 759T384
742Q391 744 400 745T420 746Q449 746 471 716T508 632T527 503T524 336ZM186 -137Q225 -137 266 -97T342 11T402 171T436 364Q438 391 439 426T439 497T435 568T425 631T410 675T389 692Q376 691 363 684Q352 678 338 665T309 627Q306 629 305 633T301 641Q299
645 298 650Q296 653 296 657T295 668Q275 646 248 606T193 505T143 364T111 178Q103 86 107 25T122 -72T151 -122T186 -137ZM380 938Q386 935 401 925T434 901T466 874T487 851Q498 833 490 824T471 808Q428 831 400 846T353 870Q332 881 320 887Q311 892 313
905T326 931Q342 947 354 946T380 938Z" />
<glyph unicode="&#xd3;" glyph-name="Oacute" horiz-adv-x="581" d="M524 336Q519 273 504 210T467 87T414 -23T348 -113T270 -173T183 -195Q174 -195 156 -192T116 -176T74 -139T36 -75T13 26T13 171Q25 305 62 414T148 602T249 722T341 765Q357 765 367 759T384
742Q391 744 400 745T420 746Q449 746 471 716T508 632T527 503T524 336ZM186 -137Q225 -137 266 -97T342 11T402 171T436 364Q438 391 439 426T439 497T435 568T425 631T410 675T389 692Q376 691 363 684Q352 678 338 665T309 627Q306 629 305 633T301 641Q299
645 298 650Q296 653 296 657T295 668Q275 646 248 606T193 505T143 364T111 178Q103 86 107 25T122 -72T151 -122T186 -137ZM452 942Q461 949 472 941T488 917Q495 896 489 886T471 867Q465 862 449 853T413 835T374 818T345 809Q334 808 328 811T319 820T314
831T313 843Q391 897 422 920Q440 933 452 942Z" />
<glyph unicode="&#xd4;" glyph-name="Ocircumflex" horiz-adv-x="581" d="M524 336Q519 273 504 210T467 87T414 -23T348 -113T270 -173T183 -195Q174 -195 156 -192T116 -176T74 -139T36 -75T13 26T13 171Q25 305 62 414T148 602T249 722T341 765Q357 765 367
759T384 742Q391 744 400 745T420 746Q449 746 471 716T508 632T527 503T524 336ZM186 -137Q225 -137 266 -97T342 11T402 171T436 364Q438 391 439 426T439 497T435 568T425 631T410 675T389 692Q376 691 363 684Q352 678 338 665T309 627Q306 629 305 633T301
641Q299 645 298 650Q296 653 296 657T295 668Q275 646 248 606T193 505T143 364T111 178Q103 86 107 25T122 -72T151 -122T186 -137ZM499 868Q508 853 516 843T537 826Q529 821 519 820T498 819Q487 819 474 821Q465 822 458 825T443 836T429 855T413 886Q413
887 413 887T412 889Q375 859 361 848T345 835Q329 821 313 823T283 824H271Q266 824 260 824T249 822Q254 826 266 836T291 856Q306 867 323 881Q329 886 339 894T359 910T378 924T390 933Q393 936 404 937T427 939T450 938T463 932Q465 929 470 920T480 901T491
881T499 868Z" />
<glyph unicode="&#xd5;" glyph-name="Otilde" horiz-adv-x="581" d="M524 336Q519 273 504 210T467 87T414 -23T348 -113T270 -173T183 -195Q174 -195 156 -192T116 -176T74 -139T36 -75T13 26T13 171Q25 305 62 414T148 602T249 722T341 765Q357 765 367 759T384
742Q391 744 400 745T420 746Q449 746 471 716T508 632T527 503T524 336ZM186 -137Q225 -137 266 -97T342 11T402 171T436 364Q438 391 439 426T439 497T435 568T425 631T410 675T389 692Q376 691 363 684Q352 678 338 665T309 627Q306 629 305 633T301 641Q299
645 298 650Q296 653 296 657T295 668Q275 646 248 606T193 505T143 364T111 178Q103 86 107 25T122 -72T151 -122T186 -137ZM528 912Q545 902 545 879Q545 867 538 855T517 835T485 822T444 821Q421 824 403 830T370 840T341 846T311 842Q302 838 293 834Q285
830 277 826T261 816Q255 817 251 820T244 825Q240 828 239 831Q235 837 233 843Q231 848 231 854T233 865Q245 881 262 889T297 900Q316 904 337 903Q364 902 380 897T411 887T439 878T476 878Q483 879 492 883Q500 887 509 893T528 912Z" />
<glyph unicode="&#xd6;" glyph-name="Odieresis" horiz-adv-x="581" d="M524 336Q519 273 504 210T467 87T414 -23T348 -113T270 -173T183 -195Q174 -195 156 -192T116 -176T74 -139T36 -75T13 26T13 171Q25 305 62 414T148 602T249 722T341 765Q357 765 367 759T384
742Q391 744 400 745T420 746Q449 746 471 716T508 632T527 503T524 336ZM186 -137Q225 -137 266 -97T342 11T402 171T436 364Q438 391 439 426T439 497T435 568T425 631T410 675T389 692Q376 691 363 684Q352 678 338 665T309 627Q306 629 305 633T301 641Q299
645 298 650Q296 653 296 657T295 668Q275 646 248 606T193 505T143 364T111 178Q103 86 107 25T122 -72T151 -122T186 -137ZM463 817Q442 817 434 825T425 847Q425 856 431 865T446 881T468 892T494 896Q519 896 528 888T538 865Q538 854 531 845T512 830T488
821T463 817ZM380 871Q380 852 358 834T298 815Q279 815 273 823T267 841Q267 860 285 879T338 898Q354 898 367 893T380 871Z" />
<glyph unicode="&#xd7;" glyph-name="multiply" horiz-adv-x="288" d="M226 201Q226 199 224 193T219 181T213 169T207 162Q202 160 200 160T195 162Q172 166 156 190T133 238Q131 246 128 255T121 278Q106 260 88 242Q73 226 54 206T16 166Q8 165 3 166T-7 169Q-11
171 -15 174Q-18 176 -21 180Q-27 188 -26 195Q-3 221 20 247T62 295Q83 320 102 341Q92 374 84 402T72 443Q64 466 54 482T30 506Q38 514 49 518T71 525Q83 528 96 528Q115 528 126 496T152 404Q152 402 152 402T153 399Q171 420 187 438T215 470T235 493T244
503Q260 521 273 524T297 519Q302 516 308 512Q320 505 334 500Q320 486 303 470T271 437Q253 419 237 400Q223 387 207 369T170 330Q180 294 191 263T214 216Q219 209 222 208T226 201Z" />
<glyph unicode="&#xd8;" glyph-name="Oslash" horiz-adv-x="612" d="M560 773Q592 780 603 778T612 771Q606 761 582 721T523 623Q537 569 541 497T538 336Q532 273 518 210T480 87T427 -23T360 -113T283 -173T196 -195Q183 -195 157 -188T103 -157L88 -190Q71
-200 56 -205T29 -212Q15 -215 4 -215Q-22 -215 -25 -209T-18 -185Q-16 -180 1 -148T46 -68Q32 -26 26 31T27 171Q38 305 75 414T161 602T262 722T354 765Q371 765 380 759T396 742Q404 744 412 745T432 746Q460 746 482 718Q489 729 495 737T509 753T529 764T560
773ZM123 178Q121 145 120 116T118 62Q145 108 175 163Q201 209 234 269T304 396L437 636Q431 662 423 677T402 692Q389 691 376 684Q365 678 351 665T322 627Q317 631 313 641Q311 645 310 650Q308 656 307 668Q288 646 260 606T205 505T155 364T123 178ZM449
364Q451 391 452 427T452 501Q424 453 395 403T339 304T286 210T242 125Q208 59 183 8T139 -81Q151 -112 166 -124T199 -137Q238 -137 278 -97T354 11T414 171T449 364Z" />
<glyph unicode="&#xd9;" glyph-name="Ugrave" horiz-adv-x="588" d="M10 -9Q11 56 28 155Q42 240 73 372T162 690Q167 700 177 707T199 719Q211 724 226 727Q240 730 253 732Q264 734 276 734T296 732Q261 644 236 573T195 449Q176 388 164 341Q147 291 135 241T116
147T105 67T101 12Q102 -48 121 -82T183 -117Q219 -117 250 -83T308 0T354 107T383 209Q385 217 387 231Q400 293 418 369Q433 434 455 522T507 714Q515 722 525 727T543 735Q553 739 563 740Q573 742 584 742Q593 742 605 741T629 735Q609 681 590 623T556 514Q538
456 522 399Q499 327 485 270T463 164T450 74T441 -8Q438 -40 440 -68Q442 -93 447 -118T465 -160Q460 -167 451 -170T432 -175Q421 -177 408 -177Q382 -177 370 -145T356 -41Q348 -57 331 -81T289 -129T229 -170T153 -187Q111 -187 84 -173T40 -134T17 -77T10
-9ZM380 907Q386 904 401 894T434 870T466 843T487 820Q498 802 490 793T471 777Q428 800 400 815T353 839Q332 850 320 856Q311 861 313 874T326 900Q342 916 354 915T380 907Z" />
<glyph unicode="&#xda;" glyph-name="Uacute" horiz-adv-x="588" d="M10 -9Q11 56 28 155Q42 240 73 372T162 690Q167 700 177 707T199 719Q211 724 226 727Q240 730 253 732Q264 734 276 734T296 732Q261 644 236 573T195 449Q176 388 164 341Q147 291 135 241T116
147T105 67T101 12Q102 -48 121 -82T183 -117Q219 -117 250 -83T308 0T354 107T383 209Q385 217 387 231Q400 293 418 369Q433 434 455 522T507 714Q515 722 525 727T543 735Q553 739 563 740Q573 742 584 742Q593 742 605 741T629 735Q609 681 590 623T556 514Q538
456 522 399Q499 327 485 270T463 164T450 74T441 -8Q438 -40 440 -68Q442 -93 447 -118T465 -160Q460 -167 451 -170T432 -175Q421 -177 408 -177Q382 -177 370 -145T356 -41Q348 -57 331 -81T289 -129T229 -170T153 -187Q111 -187 84 -173T40 -134T17 -77T10
-9ZM503 911Q512 918 523 910T539 886Q546 865 540 855T522 836Q516 831 500 822T464 804T425 787T396 778Q385 777 379 780T370 789T365 800T364 812Q442 866 473 889Q491 902 503 911Z" />
<glyph unicode="&#xdb;" glyph-name="Ucircumflex" horiz-adv-x="588" d="M10 -9Q11 56 28 155Q42 240 73 372T162 690Q167 700 177 707T199 719Q211 724 226 727Q240 730 253 732Q264 734 276 734T296 732Q261 644 236 573T195 449Q176 388 164 341Q147 291 135
241T116 147T105 67T101 12Q102 -48 121 -82T183 -117Q219 -117 250 -83T308 0T354 107T383 209Q385 217 387 231Q400 293 418 369Q433 434 455 522T507 714Q515 722 525 727T543 735Q553 739 563 740Q573 742 584 742Q593 742 605 741T629 735Q609 681 590 623T556
514Q538 456 522 399Q499 327 485 270T463 164T450 74T441 -8Q438 -40 440 -68Q442 -93 447 -118T465 -160Q460 -167 451 -170T432 -175Q421 -177 408 -177Q382 -177 370 -145T356 -41Q348 -57 331 -81T289 -129T229 -170T153 -187Q111 -187 84 -173T40 -134T17
-77T10 -9ZM530 847Q539 832 547 822T568 805Q560 800 550 799T529 798Q518 798 505 800Q496 801 489 804T474 815T460 834T444 865Q444 866 444 866T443 868Q406 838 392 827T376 814Q360 800 344 802T314 803H302Q297 803 291 803T280 801Q285 805 297 815T322
835Q337 846 354 860Q360 865 370 873T390 889T409 903T421 912Q424 915 435 916T458 918T481 917T494 911Q496 908 501 899T511 880T522 860T530 847Z" />
<glyph unicode="&#xdc;" glyph-name="Udieresis" horiz-adv-x="588" d="M10 -9Q11 56 28 155Q42 240 73 372T162 690Q167 700 177 707T199 719Q211 724 226 727Q240 730 253 732Q264 734 276 734T296 732Q261 644 236 573T195 449Q176 388 164 341Q147 291 135
241T116 147T105 67T101 12Q102 -48 121 -82T183 -117Q219 -117 250 -83T308 0T354 107T383 209Q385 217 387 231Q400 293 418 369Q433 434 455 522T507 714Q515 722 525 727T543 735Q553 739 563 740Q573 742 584 742Q593 742 605 741T629 735Q609 681 590 623T556
514Q538 456 522 399Q499 327 485 270T463 164T450 74T441 -8Q438 -40 440 -68Q442 -93 447 -118T465 -160Q460 -167 451 -170T432 -175Q421 -177 408 -177Q382 -177 370 -145T356 -41Q348 -57 331 -81T289 -129T229 -170T153 -187Q111 -187 84 -173T40 -134T17
-77T10 -9ZM484 807Q463 807 455 815T446 837Q446 846 452 855T467 871T489 882T515 886Q540 886 549 878T559 855Q559 844 552 835T533 820T509 811T484 807ZM401 861Q401 842 379 824T319 805Q300 805 294 813T288 831Q288 850 306 869T359 888Q375 888 388 883T401
861Z" />
<glyph unicode="&#xdd;" glyph-name="Yacute" horiz-adv-x="545" d="M157 77Q90 77 60 120T34 236Q38 281 51 351Q62 411 84 502T146 722Q158 730 170 734T193 741Q204 744 216 745Q225 746 235 746Q243 746 251 745T264 739Q213 608 185 515T142 362Q125 292
121 247Q118 192 137 169T196 146Q227 146 259 169T321 236T376 341T420 480Q428 523 438 566Q446 603 456 645T475 725Q484 733 494 737T514 745Q525 749 536 750Q546 751 556 750Q564 749 572 747T586 740Q569 687 557 644T535 570Q524 534 516 506Q508 476 497
428Q486 386 470 322T431 164Q425 140 416 104T393 29T357 -48T304 -118T229 -168T129 -187Q96 -186 70 -177Q47 -169 28 -154T5 -109Q10 -98 16 -89T28 -72Q35 -63 42 -55Q49 -48 57 -42Q64 -37 72 -33T88 -29Q92 -38 100 -50T120 -72T147 -90T180 -97Q204 -97
231 -82T284 -29T336 73T383 234Q370 211 350 184T303 133T239 93T157 77ZM462 911Q471 918 482 910T498 886Q505 865 499 855T481 836Q475 831 459 822T423 804T384 787T355 778Q344 777 338 780T329 789T324 800T323 812Q401 866 432 889Q450 902 462 911Z" />
<glyph unicode="&#xde;" glyph-name="Thorn" horiz-adv-x="583" d="M551 343Q545 285 514 223T426 108T286 20T92 -16Q87 -44 83 -71Q79 -94 76 -119T71 -162Q55 -170 41 -174T16 -181Q3 -184 -8 -184Q-32 -184 -37 -179T-39 -157Q-36 -143 -21 -81Q-15 -55 -6
-16T17 80T48 212T89 386L95 410L82 397Q77 392 70 386T58 373Q51 379 46 386T38 398Q34 404 32 411Q29 418 27 426T26 442T32 458T50 475Q60 482 77 493T121 518L160 683Q163 695 167 703T178 718T196 728T224 737Q252 744 263 743T272 736Q269 725 256 676T223
557Q253 565 287 569T361 574Q424 574 462 549T522 489T548 413T551 343ZM99 30Q144 32 201 50T312 107T404 204T453 349Q458 399 447 432T416 486T370 514T318 523Q290 523 261 514T206 490Q194 445 182 398T158 304T136 214T119 133Q114 104 109 79T99 30Z" />
<glyph unicode="&#xdf;" glyph-name="germandbls" horiz-adv-x="507" d="M318 353Q321 336 337 310T377 251Q388 235 402 215T429 174T450 137T456 108Q453 91 439 67T403 21T354 -18T296 -34Q275 -34 256 -21T223 9T203 44T201 70Q207 82 212 89T227 105Q231
108 237 112Q242 115 251 118T272 125Q282 94 290 77T303 49Q309 38 314 34Q320 30 329 30T348 34T366 45T379 63Q383 74 376 94T357 138T330 186T306 229Q289 267 274 294T254 350Q253 363 262 387T286 442T314 503T335 559T339 601T314 617Q292 617 274 607T240
581T212 543T193 498Q183 470 165 419Q150 375 127 303T69 121Q126 80 157 37T203 -42Q220 -84 222 -124Q222 -168 209 -212T175 -297T125 -373T65 -433T2 -471T-60 -481Q-82 -479 -95 -468T-115 -439T-122 -400T-120 -357Q-118 -344 -111 -312T-93 -236T-70 -144T-45
-47T-21 43T-2 112Q-21 123 -38 131T-71 145Q-87 152 -93 160T-98 174T-85 182T-59 180Q-31 173 9 155Q19 189 28 222T47 291T67 363T90 441Q106 498 126 542T173 616T232 661T306 677Q327 677 346 669T381 645T406 610T416 564Q416 534 401 501T366 438T332 385T318
353ZM138 -54Q130 -33 118 -11Q107 8 92 29T54 71Q39 16 29 -29T10 -107Q1 -146 -5 -176Q-14 -214 -23 -251T-38 -317T-43 -365T-30 -383Q-1 -385 30 -361T88 -299T132 -218T150 -137Q150 -117 148 -96T138 -54Z" />
<glyph unicode="&#xe0;" glyph-name="agrave" horiz-adv-x="446" d="M513 199Q499 179 477 150T432 91T386 37T348 2Q338 -4 325 -8T299 -13T273 -12T252 -3Q243 4 237 17Q232 28 228 46T224 91Q200 51 171 30T116 -2Q86 -13 56 -15Q42 -15 26 -6T-1 24T-15 77T-7
155Q7 216 37 266T104 351T175 405T233 421Q260 416 277 405Q291 395 295 376T279 324Q293 327 302 328T317 329Q323 329 325 328Q326 326 326 320T323 296T314 250T298 175Q296 166 295 159T292 144T288 126T283 101Q282 92 282 82T286 62T295 48T314 42Q324 42
340 54T374 86T411 129T448 175T478 214T498 239Q506 248 514 249T526 245T528 227T513 199ZM220 155Q225 175 232 202T244 254T251 295T250 311Q245 310 239 308Q234 306 226 305T210 302Q218 318 219 328T220 345Q219 352 216 356Q205 365 178 342T114 255Q99
229 90 200T78 144T76 99T84 73Q95 62 109 62T137 70T166 90T192 115T211 139T220 155ZM197 611Q203 608 218 598T251 574T283 547T304 524Q315 506 307 497T288 481Q245 504 217 519T170 543Q149 554 137 560Q128 565 130 578T143 604Q159 620 171 619T197 611Z"
/>
<glyph unicode="&#xe1;" glyph-name="aacute" horiz-adv-x="446" d="M513 199Q499 179 477 150T432 91T386 37T348 2Q338 -4 325 -8T299 -13T273 -12T252 -3Q243 4 237 17Q232 28 228 46T224 91Q200 51 171 30T116 -2Q86 -13 56 -15Q42 -15 26 -6T-1 24T-15 77T-7
155Q7 216 37 266T104 351T175 405T233 421Q260 416 277 405Q291 395 295 376T279 324Q293 327 302 328T317 329Q323 329 325 328Q326 326 326 320T323 296T314 250T298 175Q296 166 295 159T292 144T288 126T283 101Q282 92 282 82T286 62T295 48T314 42Q324 42
340 54T374 86T411 129T448 175T478 214T498 239Q506 248 514 249T526 245T528 227T513 199ZM220 155Q225 175 232 202T244 254T251 295T250 311Q245 310 239 308Q234 306 226 305T210 302Q218 318 219 328T220 345Q219 352 216 356Q205 365 178 342T114 255Q99
229 90 200T78 144T76 99T84 73Q95 62 109 62T137 70T166 90T192 115T211 139T220 155ZM545 871Q554 878 565 870T581 846Q588 825 582 815T564 796Q558 791 542 782T506 764T467 747T438 738Q427 737 421 740T412 749T407 760T406 772Q484 826 515 849Q533 862
545 871Z" />
<glyph unicode="&#xe2;" glyph-name="acircumflex" horiz-adv-x="446" d="M513 199Q499 179 477 150T432 91T386 37T348 2Q338 -4 325 -8T299 -13T273 -12T252 -3Q243 4 237 17Q232 28 228 46T224 91Q200 51 171 30T116 -2Q86 -13 56 -15Q42 -15 26 -6T-1 24T-15
77T-7 155Q7 216 37 266T104 351T175 405T233 421Q260 416 277 405Q291 395 295 376T279 324Q293 327 302 328T317 329Q323 329 325 328Q326 326 326 320T323 296T314 250T298 175Q296 166 295 159T292 144T288 126T283 101Q282 92 282 82T286 62T295 48T314 42Q324
42 340 54T374 86T411 129T448 175T478 214T498 239Q506 248 514 249T526 245T528 227T513 199ZM220 155Q225 175 232 202T244 254T251 295T250 311Q245 310 239 308Q234 306 226 305T210 302Q218 318 219 328T220 345Q219 352 216 356Q205 365 178 342T114 255Q99
229 90 200T78 144T76 99T84 73Q95 62 109 62T137 70T166 90T192 115T211 139T220 155ZM592 787Q601 772 609 762T630 745Q622 740 612 739T591 738Q580 738 567 740Q558 741 551 744T536 755T522 774T506 805Q506 806 506 806T505 808Q468 778 454 767T438 754Q422
740 406 742T376 743H364Q359 743 353 743T342 741Q347 745 359 755T384 775Q399 786 416 800Q422 805 432 813T452 829T471 843T483 852Q486 855 497 856T520 858T543 857T556 851Q558 848 563 839T573 820T584 800T592 787Z" />
<glyph unicode="&#xe3;" glyph-name="atilde" horiz-adv-x="446" d="M513 199Q499 179 477 150T432 91T386 37T348 2Q338 -4 325 -8T299 -13T273 -12T252 -3Q243 4 237 17Q232 28 228 46T224 91Q200 51 171 30T116 -2Q86 -13 56 -15Q42 -15 26 -6T-1 24T-15 77T-7
155Q7 216 37 266T104 351T175 405T233 421Q260 416 277 405Q291 395 295 376T279 324Q293 327 302 328T317 329Q323 329 325 328Q326 326 326 320T323 296T314 250T298 175Q296 166 295 159T292 144T288 126T283 101Q282 92 282 82T286 62T295 48T314 42Q324 42
340 54T374 86T411 129T448 175T478 214T498 239Q506 248 514 249T526 245T528 227T513 199ZM220 155Q225 175 232 202T244 254T251 295T250 311Q245 310 239 308Q234 306 226 305T210 302Q218 318 219 328T220 345Q219 352 216 356Q205 365 178 342T114 255Q99
229 90 200T78 144T76 99T84 73Q95 62 109 62T137 70T166 90T192 115T211 139T220 155ZM631 831Q648 821 648 798Q648 786 641 774T620 754T588 741T547 740Q524 743 506 749T473 759T444 765T414 761Q405 757 396 753Q388 749 380 745T364 735Q358 736 354 739T347
744Q343 747 342 750Q338 756 336 762Q334 767 334 773T336 784Q348 800 365 808T400 819Q419 823 440 822Q467 821 483 816T514 806T542 797T579 797Q586 798 595 802Q603 806 612 812T631 831Z" />
<glyph unicode="&#xe4;" glyph-name="adieresis" horiz-adv-x="446" d="M513 199Q499 179 477 150T432 91T386 37T348 2Q338 -4 325 -8T299 -13T273 -12T252 -3Q243 4 237 17Q232 28 228 46T224 91Q200 51 171 30T116 -2Q86 -13 56 -15Q42 -15 26 -6T-1 24T-15
77T-7 155Q7 216 37 266T104 351T175 405T233 421Q260 416 277 405Q291 395 295 376T279 324Q293 327 302 328T317 329Q323 329 325 328Q326 326 326 320T323 296T314 250T298 175Q296 166 295 159T292 144T288 126T283 101Q282 92 282 82T286 62T295 48T314 42Q324
42 340 54T374 86T411 129T448 175T478 214T498 239Q506 248 514 249T526 245T528 227T513 199ZM220 155Q225 175 232 202T244 254T251 295T250 311Q245 310 239 308Q234 306 226 305T210 302Q218 318 219 328T220 345Q219 352 216 356Q205 365 178 342T114 255Q99
229 90 200T78 144T76 99T84 73Q95 62 109 62T137 70T166 90T192 115T211 139T220 155ZM577 736Q556 736 548 744T539 766Q539 775 545 784T560 800T582 811T608 815Q633 815 642 807T652 784Q652 773 645 764T626 749T602 740T577 736ZM494 790Q494 771 472 753T412
734Q393 734 387 742T381 760Q381 779 399 798T452 817Q468 817 481 812T494 790Z" />
<glyph unicode="&#xe5;" glyph-name="aring" horiz-adv-x="446" d="M513 199Q499 179 477 150T432 91T386 37T348 2Q338 -4 325 -8T299 -13T273 -12T252 -3Q243 4 237 17Q232 28 228 46T224 91Q200 51 171 30T116 -2Q86 -13 56 -15Q42 -15 26 -6T-1 24T-15 77T-7
155Q7 216 37 266T104 351T175 405T233 421Q260 416 277 405Q291 395 295 376T279 324Q293 327 302 328T317 329Q323 329 325 328Q326 326 326 320T323 296T314 250T298 175Q296 166 295 159T292 144T288 126T283 101Q282 92 282 82T286 62T295 48T314 42Q324 42
340 54T374 86T411 129T448 175T478 214T498 239Q506 248 514 249T526 245T528 227T513 199ZM220 155Q225 175 232 202T244 254T251 295T250 311Q245 310 239 308Q234 306 226 305T210 302Q218 318 219 328T220 345Q219 352 216 356Q205 365 178 342T114 255Q99
229 90 200T78 144T76 99T84 73Q95 62 109 62T137 70T166 90T192 115T211 139T220 155ZM493 842Q511 842 523 837T542 825T552 808T555 790Q555 779 550 767T536 743T514 725T482 717Q461 717 449 722T429 736T420 753T417 772Q417 785 423 797T439 820T464 836T493
842ZM484 753Q498 753 504 764T511 784Q511 792 507 799T488 806Q477 806 469 797T461 777Q461 769 465 761T484 753Z" />
<glyph unicode="&#xe6;" glyph-name="ae" horiz-adv-x="609" d="M227 86Q219 74 205 57T170 23T121 -4T56 -15Q42 -15 26 -6T-1 24T-15 77T-7 155Q7 216 37 266T104 351T175 405T233 421Q267 418 280 405T294 377T290 348T281 327Q286 328 291 329T301 331Q333
369 372 394T453 419Q491 419 507 400T521 353Q518 322 504 296T470 249T428 211T385 180Q363 165 343 152T307 127Q308 102 316 85T337 58T364 43T396 38Q429 38 465 59T537 110T603 174T655 231Q662 240 670 241T682 240T687 228T681 209Q651 165 613 124T532
49T445 -4T358 -24Q341 -24 321 -18T283 1T250 36T227 86ZM423 362Q411 362 395 350T362 316T333 261T312 186Q324 195 337 204T367 225Q409 258 425 283T444 326Q448 362 423 362ZM84 73Q99 59 117 62T155 79T191 110T219 143Q219 166 223 192T233 243T242 285T249
310Q244 308 238 307Q233 305 226 305T210 302Q218 318 219 328T220 345Q219 352 216 356Q205 365 178 342T114 255Q99 229 90 200T78 144T76 99T84 73Z" />
<glyph unicode="&#xe7;" glyph-name="ccedilla" horiz-adv-x="372" d="M126 -74Q182 -72 207 -90T228 -140Q226 -157 213 -172T179 -200T131 -222T74 -234Q61 -236 54 -232T47 -223T52 -211T72 -202Q105 -194 129 -180T156 -148Q158 -131 138 -122T84 -115Q72
-116 65 -111T60 -95Q60 -92 64 -82T73 -60T82 -36T90 -18Q61 -9 42 9T11 50T-5 100T-10 153Q-10 184 4 230T45 318T115 391T214 422Q246 422 268 400T290 340Q290 322 284 305T268 274T245 252T215 244Q202 244 196 253T188 275T187 300T191 316Q196 323 202 326T216
333Q222 336 225 342T229 355T225 367T212 372Q203 372 180 358T132 315T88 243T68 143Q67 110 77 89T102 56T135 39T170 34Q201 34 238 58T311 116T376 183T421 239Q430 252 438 254T450 252T453 237T444 213Q437 201 422 180T384 133T335 80T278 30T216 -8T152
-26Q144 -38 126 -74Z" />
<glyph unicode="&#xe8;" glyph-name="egrave" horiz-adv-x="381" d="M453 208Q423 164 385 123T305 49T218 -4T131 -24Q109 -24 84 -14T37 19T4 76T-4 161Q0 202 21 247T74 331T145 394T225 419Q263 419 280 400T295 353Q292 322 278 296T243 249T201 211T158
180Q136 165 116 152T81 127Q82 102 90 85T110 58T137 43T169 38Q203 38 240 59T312 111T378 175T429 232Q436 240 443 241T455 240T460 228T453 208ZM197 362Q185 362 169 350T136 316T106 261T85 186Q97 195 111 204T139 225Q182 258 199 283T218 326Q220 345
214 353T197 362ZM187 611Q193 608 208 598T241 574T273 547T294 524Q305 506 297 497T278 481Q235 504 207 519T160 543Q139 554 127 560Q118 565 120 578T133 604Q149 620 161 619T187 611Z" />
<glyph unicode="&#xe9;" glyph-name="eacute" horiz-adv-x="381" d="M453 208Q423 164 385 123T305 49T218 -4T131 -24Q109 -24 84 -14T37 19T4 76T-4 161Q0 202 21 247T74 331T145 394T225 419Q263 419 280 400T295 353Q292 322 278 296T243 249T201 211T158
180Q136 165 116 152T81 127Q82 102 90 85T110 58T137 43T169 38Q203 38 240 59T312 111T378 175T429 232Q436 240 443 241T455 240T460 228T453 208ZM197 362Q185 362 169 350T136 316T106 261T85 186Q97 195 111 204T139 225Q182 258 199 283T218 326Q220 345
214 353T197 362ZM535 871Q544 878 555 870T571 846Q578 825 572 815T554 796Q548 791 532 782T496 764T457 747T428 738Q417 737 411 740T402 749T397 760T396 772Q474 826 505 849Q523 862 535 871Z" />
<glyph unicode="&#xea;" glyph-name="ecircumflex" horiz-adv-x="381" d="M453 208Q423 164 385 123T305 49T218 -4T131 -24Q109 -24 84 -14T37 19T4 76T-4 161Q0 202 21 247T74 331T145 394T225 419Q263 419 280 400T295 353Q292 322 278 296T243 249T201 211T158
180Q136 165 116 152T81 127Q82 102 90 85T110 58T137 43T169 38Q203 38 240 59T312 111T378 175T429 232Q436 240 443 241T455 240T460 228T453 208ZM197 362Q185 362 169 350T136 316T106 261T85 186Q97 195 111 204T139 225Q182 258 199 283T218 326Q220 345
214 353T197 362ZM326 531Q335 516 343 506T364 489Q356 484 346 483T325 482Q314 482 301 484Q292 485 285 488T270 499T256 518T240 549Q240 550 240 550T239 552Q202 522 188 511T172 498Q156 484 140 486T110 487H98Q93 487 87 487T76 485Q81 489 93 499T118
519Q133 530 150 544Q156 549 166 557T186 573T205 587T217 596Q220 599 231 600T254 602T277 601T290 595Q292 592 297 583T307 564T318 544T326 531Z" />
<glyph unicode="&#xeb;" glyph-name="edieresis" horiz-adv-x="381" d="M453 208Q423 164 385 123T305 49T218 -4T131 -24Q109 -24 84 -14T37 19T4 76T-4 161Q0 202 21 247T74 331T145 394T225 419Q263 419 280 400T295 353Q292 322 278 296T243 249T201 211T158
180Q136 165 116 152T81 127Q82 102 90 85T110 58T137 43T169 38Q203 38 240 59T312 111T378 175T429 232Q436 240 443 241T455 240T460 228T453 208ZM197 362Q185 362 169 350T136 316T106 261T85 186Q97 195 111 204T139 225Q182 258 199 283T218 326Q220 345
214 353T197 362ZM546 736Q525 736 517 744T508 766Q508 775 514 784T529 800T551 811T577 815Q602 815 611 807T621 784Q621 773 614 764T595 749T571 740T546 736ZM463 790Q463 771 441 753T381 734Q362 734 356 742T350 760Q350 779 368 798T421 817Q437 817
450 812T463 790Z" />
<glyph unicode="&#xec;" glyph-name="igrave" horiz-adv-x="281" d="M82 376Q87 382 101 386T130 392T157 395T172 395Q173 394 167 374T152 327T133 272T118 225Q113 207 106 185T94 141T86 100T89 71Q94 59 100 55T113 50Q133 50 163 72T225 124T284 186T324
237Q332 247 340 250T354 249T360 236T354 215Q338 187 307 149T241 75T173 14T118 -12Q101 -13 85 -7T55 11T32 38T22 71Q19 96 22 139T33 228T53 315T82 376ZM84 611Q90 608 105 598T138 574T170 547T191 524Q202 506 194 497T175 481Q132 504 104 519T57 543Q36
554 24 560Q15 565 17 578T30 604Q46 620 58 619T84 611Z" />
<glyph unicode="&#xed;" glyph-name="iacute" horiz-adv-x="281" d="M82 376Q87 382 101 386T130 392T157 395T172 395Q173 394 167 374T152 327T133 272T118 225Q113 207 106 185T94 141T86 100T89 71Q94 59 100 55T113 50Q133 50 163 72T225 124T284 186T324
237Q332 247 340 250T354 249T360 236T354 215Q338 187 307 149T241 75T173 14T118 -12Q101 -13 85 -7T55 11T32 38T22 71Q19 96 22 139T33 228T53 315T82 376ZM259 615Q268 622 279 614T295 590Q302 569 296 559T278 540Q272 535 256 526T220 508T181 491T152
482Q141 481 135 484T126 493T121 504T120 516Q198 570 229 593Q247 606 259 615Z" />
<glyph unicode="&#xee;" glyph-name="icircumflex" horiz-adv-x="281" d="M82 376Q87 382 101 386T130 392T157 395T172 395Q173 394 167 374T152 327T133 272T118 225Q113 207 106 185T94 141T86 100T89 71Q94 59 100 55T113 50Q133 50 163 72T225 124T284 186T324
237Q332 247 340 250T354 249T360 236T354 215Q338 187 307 149T241 75T173 14T118 -12Q101 -13 85 -7T55 11T32 38T22 71Q19 96 22 139T33 228T53 315T82 376ZM254 520Q263 505 271 495T292 478Q284 473 274 472T253 471Q242 471 229 473Q220 474 213 477T198
488T184 507T168 538Q168 539 168 539T167 541Q130 511 116 500T100 487Q84 473 68 475T38 476H26Q21 476 15 476T4 474Q9 478 21 488T46 508Q61 519 78 533Q84 538 94 546T114 562T133 576T145 585Q148 588 159 589T182 591T205 590T218 584Q220 581 225 572T235
553T246 533T254 520Z" />
<glyph unicode="&#xef;" glyph-name="idieresis" horiz-adv-x="281" d="M82 376Q87 382 101 386T130 392T157 395T172 395Q173 394 167 374T152 327T133 272T118 225Q113 207 106 185T94 141T86 100T89 71Q94 59 100 55T113 50Q133 50 163 72T225 124T284 186T324
237Q332 247 340 250T354 249T360 236T354 215Q338 187 307 149T241 75T173 14T118 -12Q101 -13 85 -7T55 11T32 38T22 71Q19 96 22 139T33 228T53 315T82 376ZM218 480Q197 480 189 488T180 510Q180 519 186 528T201 544T223 555T249 559Q274 559 283 551T293
528Q293 517 286 508T267 493T243 484T218 480ZM135 534Q135 515 113 497T53 478Q34 478 28 486T22 504Q22 523 40 542T93 561Q109 561 122 556T135 534Z" />
<glyph unicode="&#xf0;" glyph-name="eth" horiz-adv-x="403" d="M115 38Q133 38 148 46T175 68T196 99T213 136Q206 135 200 135T185 134Q147 134 120 156T77 214Q71 193 67 173T63 135Q63 117 65 100T73 69T89 47T115 38ZM238 238Q240 257 238 277T231 313T217
340T196 351Q177 351 160 341T127 311Q124 302 124 292Q124 276 126 259T136 227T161 204T210 194Q215 194 220 194T230 196Q233 209 235 219T238 238ZM406 522Q389 520 366 515T316 504Q327 448 327 377T309 216Q367 242 410 270T476 321Q486 330 493 331T504
327T505 313T494 293Q489 287 468 269T419 229T357 187T296 158Q286 120 269 88T229 31T176 -6T111 -20Q70 -20 47 -3T12 41T-2 98T-5 156Q-5 175 -1 198T12 245T32 293T62 337Q68 354 80 367T109 388T145 401T182 406Q185 406 187 405T193 403Q207 402 224 395T261
368Q262 384 262 404Q262 421 261 443T258 492Q250 489 235 485T201 475T162 462T123 445Q121 451 121 458T120 471Q120 478 121 485Q123 495 127 506T137 520Q143 525 176 535T249 554Q244 573 238 590T224 625Q221 631 219 638T219 654Q222 673 225 676T234 676Q251
666 269 639T301 564Q336 571 361 575T412 582Q425 584 428 578T429 554Q427 539 422 532T406 522Z" />
<glyph unicode="&#xf1;" glyph-name="ntilde" horiz-adv-x="473" d="M297 -25Q274 -25 258 -17T231 6T218 38T220 78Q223 92 230 115T244 166T258 221T267 271T265 308T248 323Q232 323 215 313T181 284T146 243T111 194Q102 160 96 135T86 89T77 53T70 23Q67
13 52 4T20 -12T-9 -18T-20 -9Q-19 -3 -14 18T-1 67T15 128T30 189Q35 212 41 240Q46 264 53 296T71 366Q78 372 85 375T101 381Q109 384 118 385Q126 385 134 384Q141 383 148 381T162 373Q159 366 155 354T147 327Q143 311 137 294Q150 312 166 330T202 364T244
388T289 398Q308 398 323 387T346 357T356 310T349 251L338 207Q333 186 326 158T307 95Q301 73 302 57T322 41Q340 41 367 63T423 116T476 179T514 232Q523 245 531 249T543 250T548 237T540 210Q533 196 519 173T484 124T441 72T393 24T344 -11T297 -25ZM641
821Q658 811 658 788Q658 776 651 764T630 744T598 731T557 730Q534 733 516 739T483 749T454 755T424 751Q415 747 406 743Q398 739 390 735T374 725Q368 726 364 729T357 734Q353 737 352 740Q348 746 346 752Q344 757 344 763T346 774Q358 790 375 798T410 809Q429
813 450 812Q477 811 493 806T524 796T552 787T589 787Q596 788 605 792Q613 796 622 802T641 821Z" />
<glyph unicode="&#xf2;" glyph-name="ograve" horiz-adv-x="403" d="M296 159Q286 121 269 88T229 31T176 -6T111 -20Q70 -20 47 -3T12 41T-2 98T-5 156Q-5 175 -1 198T12 245T32 293T62 337Q68 354 80 367T109 388T145 401T182 406Q185 406 187 405T193 403Q206
402 225 393T263 366T295 321T308 254Q308 246 307 235T305 215Q328 224 353 237T401 264T445 294T477 321Q487 330 494 331T504 327T505 313T494 293Q489 287 469 269T420 230T359 189T296 159ZM127 311Q124 302 124 292Q124 276 126 259T136 227T161 204T210
194Q215 194 220 194T230 196Q233 209 235 219T238 238Q240 257 238 277T231 313T217 340T196 351Q177 351 160 341T127 311ZM63 135Q63 117 65 100T73 69T89 47T115 38Q133 38 148 46T175 68T196 99T213 136Q206 135 200 135T185 134Q147 134 120 156T77 214Q71
193 67 173T63 135ZM187 601Q193 598 208 588T241 564T273 537T294 514Q305 496 297 487T278 471Q235 494 207 509T160 533Q139 544 127 550Q118 555 120 568T133 594Q149 610 161 609T187 601Z" />
<glyph unicode="&#xf3;" glyph-name="oacute" horiz-adv-x="403" d="M296 159Q286 121 269 88T229 31T176 -6T111 -20Q70 -20 47 -3T12 41T-2 98T-5 156Q-5 175 -1 198T12 245T32 293T62 337Q68 354 80 367T109 388T145 401T182 406Q185 406 187 405T193 403Q206
402 225 393T263 366T295 321T308 254Q308 246 307 235T305 215Q328 224 353 237T401 264T445 294T477 321Q487 330 494 331T504 327T505 313T494 293Q489 287 469 269T420 230T359 189T296 159ZM127 311Q124 302 124 292Q124 276 126 259T136 227T161 204T210
194Q215 194 220 194T230 196Q233 209 235 219T238 238Q240 257 238 277T231 313T217 340T196 351Q177 351 160 341T127 311ZM63 135Q63 117 65 100T73 69T89 47T115 38Q133 38 148 46T175 68T196 99T213 136Q206 135 200 135T185 134Q147 134 120 156T77 214Q71
193 67 173T63 135ZM535 861Q544 868 555 860T571 836Q578 815 572 805T554 786Q548 781 532 772T496 754T457 737T428 728Q417 727 411 730T402 739T397 750T396 762Q474 816 505 839Q523 852 535 861Z" />
<glyph unicode="&#xf4;" glyph-name="ocircumflex" horiz-adv-x="403" d="M296 159Q286 121 269 88T229 31T176 -6T111 -20Q70 -20 47 -3T12 41T-2 98T-5 156Q-5 175 -1 198T12 245T32 293T62 337Q68 354 80 367T109 388T145 401T182 406Q185 406 187 405T193
403Q206 402 225 393T263 366T295 321T308 254Q308 246 307 235T305 215Q328 224 353 237T401 264T445 294T477 321Q487 330 494 331T504 327T505 313T494 293Q489 287 469 269T420 230T359 189T296 159ZM127 311Q124 302 124 292Q124 276 126 259T136 227T161
204T210 194Q215 194 220 194T230 196Q233 209 235 219T238 238Q240 257 238 277T231 313T217 340T196 351Q177 351 160 341T127 311ZM63 135Q63 117 65 100T73 69T89 47T115 38Q133 38 148 46T175 68T196 99T213 136Q206 135 200 135T185 134Q147 134 120 156T77
214Q71 193 67 173T63 135ZM295 520Q304 505 312 495T333 478Q325 473 315 472T294 471Q283 471 270 473Q261 474 254 477T239 488T225 507T209 538Q209 539 209 539T208 541Q171 511 157 500T141 487Q125 473 109 475T79 476H67Q62 476 56 476T45 474Q50 478 62
488T87 508Q102 519 119 533Q125 538 135 546T155 562T174 576T186 585Q189 588 200 589T223 591T246 590T259 584Q261 581 266 572T276 553T287 533T295 520Z" />
<glyph unicode="&#xf5;" glyph-name="otilde" horiz-adv-x="403" d="M296 159Q286 121 269 88T229 31T176 -6T111 -20Q70 -20 47 -3T12 41T-2 98T-5 156Q-5 175 -1 198T12 245T32 293T62 337Q68 354 80 367T109 388T145 401T182 406Q185 406 187 405T193 403Q206
402 225 393T263 366T295 321T308 254Q308 246 307 235T305 215Q328 224 353 237T401 264T445 294T477 321Q487 330 494 331T504 327T505 313T494 293Q489 287 469 269T420 230T359 189T296 159ZM127 311Q124 302 124 292Q124 276 126 259T136 227T161 204T210
194Q215 194 220 194T230 196Q233 209 235 219T238 238Q240 257 238 277T231 313T217 340T196 351Q177 351 160 341T127 311ZM63 135Q63 117 65 100T73 69T89 47T115 38Q133 38 148 46T175 68T196 99T213 136Q206 135 200 135T185 134Q147 134 120 156T77 214Q71
193 67 173T63 135ZM345 565Q362 555 362 532Q362 520 355 508T334 488T302 475T261 474Q238 477 220 483T187 493T158 499T128 495Q119 491 110 487Q102 483 94 479T78 469Q72 470 68 473T61 478Q57 481 56 484Q52 490 50 496Q48 501 48 507T50 518Q62 534 79
542T114 553Q133 557 154 556Q181 555 197 550T228 540T256 531T293 531Q300 532 309 536Q317 540 326 546T345 565Z" />
<glyph unicode="&#xf6;" glyph-name="odieresis" horiz-adv-x="403" d="M296 159Q286 121 269 88T229 31T176 -6T111 -20Q70 -20 47 -3T12 41T-2 98T-5 156Q-5 175 -1 198T12 245T32 293T62 337Q68 354 80 367T109 388T145 401T182 406Q185 406 187 405T193 403Q206
402 225 393T263 366T295 321T308 254Q308 246 307 235T305 215Q328 224 353 237T401 264T445 294T477 321Q487 330 494 331T504 327T505 313T494 293Q489 287 469 269T420 230T359 189T296 159ZM127 311Q124 302 124 292Q124 276 126 259T136 227T161 204T210
194Q215 194 220 194T230 196Q233 209 235 219T238 238Q240 257 238 277T231 313T217 340T196 351Q177 351 160 341T127 311ZM63 135Q63 117 65 100T73 69T89 47T115 38Q133 38 148 46T175 68T196 99T213 136Q206 135 200 135T185 134Q147 134 120 156T77 214Q71
193 67 173T63 135ZM278 475Q257 475 249 483T240 505Q240 514 246 523T261 539T283 550T309 554Q334 554 343 546T353 523Q353 512 346 503T327 488T303 479T278 475ZM195 529Q195 510 173 492T113 473Q94 473 88 481T82 499Q82 518 100 537T153 556Q169 556 182
551T195 529Z" />
<glyph unicode="&#xf7;" glyph-name="divide" horiz-adv-x="359" d="M163 337Q135 336 106 333Q81 331 52 327T-4 315Q-6 323 -5 330T-3 345Q-2 353 0 360Q3 370 10 381T24 395Q28 397 43 399T80 403T128 406T180 408Q233 408 268 407T335 401Q349 399 352 393T350
368Q345 351 339 344T319 338Q293 339 250 339T163 337ZM154 480Q153 498 172 512T218 527Q243 527 252 519T263 497Q264 486 257 478T240 463T217 454T193 451Q173 451 164 459T154 480ZM162 281Q178 281 190 276T205 255Q206 236 185 219T128 201Q110 201 104
209T96 226Q95 245 112 263T162 281Z" />
<glyph unicode="&#xf8;" glyph-name="oslash" horiz-adv-x="416" d="M489 321Q499 330 506 331T516 327T517 313T506 293Q501 287 481 269T433 230T371 189T308 159Q299 121 282 88T241 31T187 -6T122 -20Q91 -20 71 -10Q65 -18 61 -26Q57 -33 53 -40T45 -54Q28
-62 15 -65T-8 -71Q-19 -73 -29 -73Q-49 -73 -50 -69T-44 -50Q-41 -45 -22 -18T23 44Q12 70 10 100T7 156Q7 175 11 198T24 245T44 293T74 337Q80 354 92 367T121 388T157 401T195 406Q197 406 200 405T205 403Q215 402 228 398T256 383L266 398Q279 418 293 427T339
443Q365 449 373 448T379 442Q371 430 351 403T300 334Q309 318 315 299T321 254Q321 246 320 235T317 215Q338 223 362 235T409 262T454 292T489 321ZM127 38Q145 38 159 46T186 68T208 99T225 136Q218 135 212 135T198 134Q158 134 132 156T89 214Q83 193 80
173T76 135Q76 117 78 100T85 69T101 47T127 38ZM250 238Q251 257 250 277T243 313T229 340T208 351Q188 351 171 341T139 311Q136 302 136 292Q136 276 137 259T147 227T173 204T221 194Q226 194 232 194T243 196Q246 209 247 219T250 238Z" />
<glyph unicode="&#xf9;" glyph-name="ugrave" horiz-adv-x="480" d="M124 -16Q86 -16 62 -4T25 25T6 63T0 101Q0 131 5 164T17 226T29 275T37 300Q46 329 60 350T101 380Q111 382 122 384Q131 385 140 385T158 382Q131 313 116 267T92 192Q83 159 81 139Q76 94
89 71T142 48Q168 48 192 67T236 118Q233 134 233 151Q233 183 238 213T251 270T267 318T282 351Q293 375 302 380T331 387Q339 388 344 388T354 386Q366 383 366 374Q366 358 364 326T352 260Q345 232 339 213T326 180T314 158T303 142Q305 112 308 94T315 67T326
54T341 50Q355 50 374 63T413 97T454 142T492 189T521 227T536 248Q543 257 549 259T560 258T564 247T560 230Q540 192 511 150T448 71T380 11T316 -13Q289 -13 274 5T247 59Q224 23 193 4T124 -16ZM197 580Q203 577 218 567T251 543T283 516T304 493Q315 475 307
466T288 450Q245 473 217 488T170 512Q149 523 137 529Q128 534 130 547T143 573Q159 589 171 588T197 580Z" />
<glyph unicode="&#xfa;" glyph-name="uacute" horiz-adv-x="480" d="M124 -16Q86 -16 62 -4T25 25T6 63T0 101Q0 131 5 164T17 226T29 275T37 300Q46 329 60 350T101 380Q111 382 122 384Q131 385 140 385T158 382Q131 313 116 267T92 192Q83 159 81 139Q76 94
89 71T142 48Q168 48 192 67T236 118Q233 134 233 151Q233 183 238 213T251 270T267 318T282 351Q293 375 302 380T331 387Q339 388 344 388T354 386Q366 383 366 374Q366 358 364 326T352 260Q345 232 339 213T326 180T314 158T303 142Q305 112 308 94T315 67T326
54T341 50Q355 50 374 63T413 97T454 142T492 189T521 227T536 248Q543 257 549 259T560 258T564 247T560 230Q540 192 511 150T448 71T380 11T316 -13Q289 -13 274 5T247 59Q224 23 193 4T124 -16ZM556 840Q565 847 576 839T592 815Q599 794 593 784T575 765Q569
760 553 751T517 733T478 716T449 707Q438 706 432 709T423 718T418 729T417 741Q495 795 526 818Q544 831 556 840Z" />
<glyph unicode="&#xfb;" glyph-name="ucircumflex" horiz-adv-x="480" d="M124 -16Q86 -16 62 -4T25 25T6 63T0 101Q0 131 5 164T17 226T29 275T37 300Q46 329 60 350T101 380Q111 382 122 384Q131 385 140 385T158 382Q131 313 116 267T92 192Q83 159 81 139Q76
94 89 71T142 48Q168 48 192 67T236 118Q233 134 233 151Q233 183 238 213T251 270T267 318T282 351Q293 375 302 380T331 387Q339 388 344 388T354 386Q366 383 366 374Q366 358 364 326T352 260Q345 232 339 213T326 180T314 158T303 142Q305 112 308 94T315
67T326 54T341 50Q355 50 374 63T413 97T454 142T492 189T521 227T536 248Q543 257 549 259T560 258T564 247T560 230Q540 192 511 150T448 71T380 11T316 -13Q289 -13 274 5T247 59Q224 23 193 4T124 -16ZM602 766Q611 751 619 741T640 724Q632 719 622 718T601
717Q590 717 577 719Q568 720 561 723T546 734T532 753T516 784Q516 785 516 785T515 787Q478 757 464 746T448 733Q432 719 416 721T386 722H374Q369 722 363 722T352 720Q357 724 369 734T394 754Q409 765 426 779Q432 784 442 792T462 808T481 822T493 831Q496
834 507 835T530 837T553 836T566 830Q568 827 573 818T583 799T594 779T602 766Z" />
<glyph unicode="&#xfc;" glyph-name="udieresis" horiz-adv-x="480" d="M124 -16Q86 -16 62 -4T25 25T6 63T0 101Q0 131 5 164T17 226T29 275T37 300Q46 329 60 350T101 380Q111 382 122 384Q131 385 140 385T158 382Q131 313 116 267T92 192Q83 159 81 139Q76
94 89 71T142 48Q168 48 192 67T236 118Q233 134 233 151Q233 183 238 213T251 270T267 318T282 351Q293 375 302 380T331 387Q339 388 344 388T354 386Q366 383 366 374Q366 358 364 326T352 260Q345 232 339 213T326 180T314 158T303 142Q305 112 308 94T315
67T326 54T341 50Q355 50 374 63T413 97T454 142T492 189T521 227T536 248Q543 257 549 259T560 258T564 247T560 230Q540 192 511 150T448 71T380 11T316 -13Q289 -13 274 5T247 59Q224 23 193 4T124 -16ZM573 733Q552 733 544 741T535 763Q535 772 541 781T556
797T578 808T604 812Q629 812 638 804T648 781Q648 770 641 761T622 746T598 737T573 733ZM490 787Q490 768 468 750T408 731Q389 731 383 739T377 757Q377 776 395 795T448 814Q464 814 477 809T490 787Z" />
<glyph unicode="&#xfd;" glyph-name="yacute" horiz-adv-x="416" d="M263 368Q276 378 288 383T311 391Q322 394 333 393Q360 391 366 376T368 328Q365 311 356 285T335 222T310 136T284 28Q272 -21 258 -85Q246 -141 230 -220T194 -401Q189 -426 173 -430T138
-426Q131 -422 125 -417Q120 -412 114 -406T104 -388Q127 -304 144 -235T176 -115Q191 -56 204 -9Q209 12 213 32T223 73Q210 52 195 33T162 0T124 -21T81 -26Q27 -19 5 14T-15 100Q-14 121 -9 146T2 194T13 235T22 262Q34 300 39 327T31 372Q45 381 57 384T80
390Q91 391 102 390Q129 386 133 370T130 322Q126 305 117 279T98 224T80 173T71 139Q62 94 70 70T105 45Q118 45 134 56T166 87T199 130T228 180T252 229T268 272Q275 309 277 330T263 368ZM576 851Q585 858 596 850T612 826Q619 805 613 795T595 776Q589 771
573 762T537 744T498 727T469 718Q458 717 452 720T443 729T438 740T437 752Q515 806 546 829Q564 842 576 851Z" />
<glyph unicode="&#xfe;" glyph-name="thorn" horiz-adv-x="462" d="M505 229Q513 239 520 242T531 243T535 232T529 210Q525 201 513 181T481 136T437 84T386 35T330 -1T273 -16Q260 -16 253 -15T240 -12T229 -7T217 -1Q199 -15 180 -22T143 -30Q126 -30 114 -25T93
-10T80 11T72 34Q71 30 71 27T69 19Q57 -29 44 -92Q33 -146 18 -223T-15 -400Q-21 -427 -36 -431T-72 -427Q-79 -424 -86 -418Q-92 -413 -98 -406T-108 -387Q-80 -280 -61 -201T-27 -69Q-12 -7 -1 35Q8 69 20 121T47 231T75 348T100 456T119 539T128 581Q131 600
133 618Q135 634 135 651T132 682Q140 687 150 690T169 695Q180 698 190 700Q201 702 210 702Q218 702 225 701T234 694Q240 689 240 674T237 643Q233 624 228 602Q208 525 183 451T137 296Q152 313 170 331T208 363T249 387T290 397Q313 397 327 386T350 355T360
313T361 266Q360 241 353 213T332 156T302 99T266 47Q269 45 271 44T279 43Q302 43 326 55T373 85T418 126T457 168T487 205T505 229ZM195 76Q210 94 226 116T256 163T279 212T290 260Q292 290 283 307T253 324Q222 324 186 288T111 193Q106 176 101 154T88 100Q96
106 106 109T126 112Q137 112 154 101T195 76Z" />
<glyph unicode="&#xff;" glyph-name="ydieresis" horiz-adv-x="416" d="M263 368Q276 378 288 383T311 391Q322 394 333 393Q360 391 366 376T368 328Q365 311 356 285T335 222T310 136T284 28Q272 -21 258 -85Q246 -141 230 -220T194 -401Q189 -426 173 -430T138
-426Q131 -422 125 -417Q120 -412 114 -406T104 -388Q127 -304 144 -235T176 -115Q191 -56 204 -9Q209 12 213 32T223 73Q210 52 195 33T162 0T124 -21T81 -26Q27 -19 5 14T-15 100Q-14 121 -9 146T2 194T13 235T22 262Q34 300 39 327T31 372Q45 381 57 384T80
390Q91 391 102 390Q129 386 133 370T130 322Q126 305 117 279T98 224T80 173T71 139Q62 94 70 70T105 45Q118 45 134 56T166 87T199 130T228 180T252 229T268 272Q275 309 277 330T263 368ZM546 736Q525 736 517 744T508 766Q508 775 514 784T529 800T551 811T577
815Q602 815 611 807T621 784Q621 773 614 764T595 749T571 740T546 736ZM463 790Q463 771 441 753T381 734Q362 734 356 742T350 760Q350 779 368 798T421 817Q437 817 450 812T463 790Z" />
<glyph unicode="&#x2013;" glyph-name="endash" horiz-adv-x="362" d="M310 289Q282 290 239 290T154 288Q126 287 97 284Q72 282 42 278T-15 266Q-16 274 -15 281T-12 296Q-10 304 -8 311Q-4 321 3 332T17 346Q22 348 37 350T74 353T122 356T175 357Q228 358
263 357T330 352Q344 350 346 343T343 318Q337 301 330 295T310 289Z" />
<glyph unicode="&#x2014;" glyph-name="emdash" horiz-adv-x="521" d="M496 343Q504 341 506 334T502 306Q496 288 489 283T474 276Q471 275 447 277T389 281T314 286T238 287Q170 285 115 283T14 274Q-6 272 -11 282T-14 305Q-11 318 -5 333T16 351Q64 356 108
358T187 361Q227 362 264 361Q310 363 351 361T422 356T472 348T496 343Z" />
<glyph unicode="&#x2018;" glyph-name="quoteleft" horiz-adv-x="159" d="M132 588Q147 586 158 573T166 537Q161 508 136 488T82 472Q56 475 48 497T45 547Q48 561 54 580T71 619T98 658T138 692Q148 698 153 698T161 693T162 682T154 669Q144 656 131 634T113
586Q124 589 132 588Z" />
<glyph unicode="&#x2019;" glyph-name="quoteright" horiz-adv-x="158" d="M97 577Q81 579 71 591T63 627Q65 642 73 654T92 676T118 689T147 692Q173 689 180 667T183 617Q181 603 175 584T158 545T130 506T90 472Q80 466 75 466T67 471T66 483T73 496Q84 507
96 529T114 578Q109 577 105 576T97 577Z" />
<glyph unicode="&#x201a;" glyph-name="quotesinglbase" horiz-adv-x="193" d="M47 103Q73 100 80 78T83 28Q81 14 75 -5T58 -44T30 -84T-10 -118Q-20 -124 -25 -123T-33 -118T-33 -107T-26 -94Q-15 -82 -3 -60T15 -11Q3 -14 -3 -13Q-19 -11 -29 1T-37 38Q-35
53 -27 65T-8 87T18 100T47 103Z" />
<glyph unicode="&#x201c;" glyph-name="quotedblleft" horiz-adv-x="296" d="M132 588Q147 586 158 573T166 537Q161 508 136 488T82 472Q56 475 48 497T45 547Q48 561 54 580T71 619T98 658T138 692Q148 698 153 698T161 693T162 682T154 669Q144 656 131 634T113
586Q124 589 132 588ZM268 588Q285 586 295 573T303 537Q301 522 293 510T274 488T248 475T219 472Q193 475 185 497T182 547Q185 561 191 580T208 619T235 658T275 692Q285 698 290 698T298 693T299 682T292 669Q281 656 269 634T251 586Q261 589 268 588Z" />
<glyph unicode="&#x201d;" glyph-name="quotedblright" horiz-adv-x="295" d="M283 697Q309 694 317 672T320 622Q317 608 311 589T294 550T267 510T227 476Q217 470 212 471T204 476T203 487T211 500Q222 512 234 534T252 583Q240 580 234 581Q218 583 207 595T199
632Q204 661 229 680T283 697ZM147 697Q173 694 180 672T183 622Q181 608 175 589T158 550T130 510T90 476Q80 470 75 471T67 476T66 487T73 500Q84 512 96 534T114 583Q104 580 97 581Q81 583 71 595T63 632Q65 647 73 659T92 681T118 694T147 697Z" />
<glyph unicode="&#x201e;" glyph-name="quotedblbase" horiz-adv-x="331" d="M184 103Q210 100 218 78T220 28Q217 14 211 -5T194 -44T167 -84T127 -118Q118 -124 112 -123T104 -118T103 -107T111 -94Q122 -82 134 -60T152 -11Q141 -15 134 -13Q118 -11 107 1T100
38Q102 53 110 65T129 87T155 100T184 103ZM47 103Q73 100 80 78T83 28Q81 14 75 -5T58 -44T30 -84T-10 -118Q-20 -124 -25 -123T-33 -118T-33 -107T-26 -94Q-15 -82 -3 -60T15 -11Q3 -14 -3 -13Q-19 -11 -29 1T-37 38Q-35 53 -27 65T-8 87T18 100T47 103Z" />
<glyph unicode="&#x2022;" glyph-name="bullet" horiz-adv-x="185" d="M52 175Q30 175 18 184T-1 208T-8 238T-10 270Q-10 288 -3 311T17 355T49 390T95 404Q102 404 113 400T134 386T152 361T160 324Q160 297 153 270T131 222T97 188T52 175Z" />
<glyph unicode="&#x2039;" glyph-name="guilsinglleft" horiz-adv-x="207" d="M170 396Q190 399 194 395T196 389Q193 384 178 365T142 319T95 258T44 191Q46 184 56 161Q64 141 81 102T127 -7Q123 -10 118 -11T108 -13Q102 -14 96 -14Q83 -14 79 -12T73 -3Q72
-2 64 12T43 48T16 93T-11 139T-32 175T-41 191Q-39 195 -21 215Q-6 232 26 267T118 368Q129 380 138 386T170 396Z" />
<glyph unicode="&#x203a;" glyph-name="guilsinglright" horiz-adv-x="207" d="M-45 -14Q-65 -17 -69 -13T-71 -6Q-68 -2 -53 17T-17 63T29 124T81 191Q79 197 69 221Q61 241 44 280T-2 390Q2 392 7 393T17 395Q22 396 29 396Q42 396 46 394T52 386Q52 385 61
371T82 335T109 289T136 243T157 207T166 191Q164 187 146 167Q131 150 99 114T7 14Q-4 3 -13 -3T-45 -14Z" />
</font>
</defs>
</svg>
